<?xml version="1.0" standalone="no"?>
<!DOCTYPE svg PUBLIC "-//W3C//DTD SVG 1.1//EN" "http://www.w3.org/Graphics/SVG/1.1/DTD/svg11.dtd" >
<svg xmlns="http://www.w3.org/2000/svg" xmlns:xlink="http://www.w3.org/1999/xlink" version="1.1">
<metadata>
Created by FontForge 20170731 at Thu Apr 12 20:19:39 2007
 By Aleksey,,,
(c) Copyright 2006, 2007 Berthold LLC. All Rights Reserved. This font software computer program is the property of Berthold. You may not reproduce, modify, adapt, translate, alter nor create derivative works of the font software. You may not reverse engineer, decompile, decrypt, disassemble, nor seek to discover the source code of the font software.
</metadata>
<defs>
<font id="AkzidenzGroteskPro-CnIt" horiz-adv-x="368" >
  <font-face 
    font-family="Akzidenz-Grotesk Pro Cnd"
    font-weight="400"
    font-style="italic"
    font-stretch="condensed"
    units-per-em="1000"
    panose-1="2 0 0 6 5 0 0 9 0 4"
    ascent="750"
    descent="-250"
    x-height="497"
    cap-height="706"
    bbox="-169 -250 917 998"
    underline-thickness="59"
    underline-position="-350"
    slope="-13"
    unicode-range="U+0020-FB02"
  />
<missing-glyph horiz-adv-x="500" 
d="M0 0v706h500v-706h-500zM250 401l170 255h-340zM280 353l170 -258v516zM80 50h340l-170 258zM50 611v-516l170 258z" />
    <glyph glyph-name="fi" unicode="fi" horiz-adv-x="385" 
d="M454 691l-24 -103h-80l24 103h80zM411 496l-115 -496h-80l114 496h81zM344 701l-15 -65q-17 8 -40 8q-26 0 -38 -21t-24 -74l-12 -53h71l-13 -58h-70l-102 -438h-79l101 438h-53l14 58h52l13 57q20 87 47 123t83 36q32 0 65 -11z" />
    <glyph glyph-name="fl" unicode="fl" horiz-adv-x="385" 
d="M459 706l-163 -706h-80l162 706h81zM344 701l-15 -65q-17 8 -40 8q-26 0 -38 -21t-24 -74l-12 -53h71l-13 -58h-70l-102 -438h-79l101 438h-53l14 58h52l13 57q20 87 47 123t83 36q32 0 65 -11z" />
    <glyph glyph-name=".notdef" horiz-adv-x="500" 
d="M0 0v706h500v-706h-500zM250 401l170 255h-340zM280 353l170 -258v516zM80 50h340l-170 258zM50 611v-516l170 258z" />
    <glyph glyph-name=".null" horiz-adv-x="0" 
 />
    <glyph glyph-name="nonmarkingreturn" horiz-adv-x="333" 
 />
    <glyph glyph-name="space" unicode=" " horiz-adv-x="208" 
 />
    <glyph glyph-name="exclam" unicode="!" horiz-adv-x="208" 
d="M272 706l-51 -222l-91 -292h-44l49 292l51 222h86zM133 118l-27 -118h-86l27 118h86z" />
    <glyph glyph-name="quotedbl" unicode="&#x22;" horiz-adv-x="272" 
d="M363 741l-90 -289h-28l41 289h77zM227 741l-90 -289h-29l41 289h78z" />
    <glyph glyph-name="numbersign" unicode="#" horiz-adv-x="538" 
d="M583 491l-18 -77h-122l-29 -107h123l-19 -77h-125l-62 -230h-79l62 230h-88l-62 -230h-80l62 230h-121l18 77h123l29 107h-124l18 77h128l58 215h80l-59 -215h88l58 215h80l-59 -215h120zM363 414h-88l-29 -107h88z" />
    <glyph glyph-name="dollar" unicode="$" horiz-adv-x="396" 
d="M420 498h-80l9 38q8 34 8 56q0 35 -32 44l-57 -245l35 -50q55 -78 55 -153q0 -89 -49 -141.5t-134 -56.5l-19 -84h-57l19 84q-107 27 -107 128q0 29 14 86l9 38h82l-9 -38q-14 -62 -14 -72q0 -27 9 -42.5t34 -22.5l62 267l-47 65q-34 48 -34 110q0 88 46.5 147t122.5 59
l20 84h57l-19 -85q94 -18 94 -109q0 -23 -6 -53zM225 450l43 186q-29 -7 -47.5 -39.5t-18.5 -75.5q0 -37 23 -71zM240 271l-47 -206q38 6 60.5 37.5t22.5 80.5q0 41 -36 88z" />
    <glyph glyph-name="percent" unicode="%" horiz-adv-x="625" 
d="M635 315l-52 -216q-25 -103 -112 -103q-42 0 -68.5 24t-26.5 62q0 18 6 44l52 215q25 104 110 104q43 0 70 -24t27 -62q0 -20 -6 -44zM608 706l-476 -706h-49l476 706h49zM304 579l-51 -215q-25 -104 -113 -104q-41 0 -67.5 24.5t-26.5 62.5q0 17 6 44l51 215
q25 104 110 104q44 0 70.5 -23.5t26.5 -62.5q0 -18 -6 -45zM521 120l46 197q5 19 5 32q0 16 -8.5 25.5t-22.5 9.5q-17 0 -26.5 -12t-18.5 -51l-46 -197q-5 -24 -5 -33q0 -15 8.5 -24.5t22.5 -9.5q16 0 26 12t19 51zM191 385l45 197q5 22 5 33q0 15 -8 24t-22 9
q-18 0 -27.5 -12t-18.5 -50l-45 -197q-5 -23 -5 -33q0 -15 8.5 -24.5t21.5 -9.5q16 0 26.5 11.5t19.5 51.5z" />
    <glyph glyph-name="ampersand" unicode="&#x26;" horiz-adv-x="458" 
d="M362 306h77q-17 -67 -38 -112t-60 -88q13 -34 55 -34h10l-17 -76q-6 0 -11.5 -0.5t-7.5 -0.5q-60 0 -94 47q-75 -52 -137 -52t-101 40.5t-39 104.5q0 54 30 98q20 29 40 48t75 58l18 13q-17 60 -17 107q0 73 39 118t102 45q49 0 80.5 -27.5t31.5 -71.5q0 -43 -32.5 -84.5
t-110.5 -103.5q23 -88 51 -160q3 5 10.5 16t9.5 14.5t7 13t7.5 15.5t6.5 17.5t7.5 24.5t7.5 30zM237 404q86 70 86 112q0 18 -11.5 28.5t-30.5 10.5q-54 0 -54 -80q0 -29 10 -71zM242 104q-29 66 -61 177q-57 -45 -77 -73t-20 -66q0 -36 20 -58t52 -22q41 0 86 42z" />
    <glyph glyph-name="quotesingle" unicode="'" horiz-adv-x="136" 
d="M227 741l-90 -289h-29l41 289h78z" />
    <glyph glyph-name="parenleft" unicode="(" horiz-adv-x="297" 
d="M351 720l34 -41q-69 -73 -105.5 -125t-68.5 -129q-64 -154 -64 -299q0 -149 54 -268l-50 -34q-87 165 -87 329q0 171 90 329q26 44 64 93q49 65 133 145z" />
    <glyph glyph-name="parenright" unicode=")" horiz-adv-x="297" 
d="M114 687l50 33q86 -166 86 -329q0 -174 -90 -328q-24 -43 -63 -94q-53 -69 -133 -145l-35 42q66 62 104 118t71 135q64 156 64 300q0 149 -54 268z" />
    <glyph glyph-name="asterisk" unicode="*" horiz-adv-x="332" 
d="M385 557l-101 -11l38 -91l-52 -23l-39 92l-72 -65l-37 44l72 65l-83 49l28 49l85 -48l23 96l56 -14l-24 -97l100 9z" />
    <glyph glyph-name="plus" unicode="+" horiz-adv-x="558" 
d="M504 334l-18 -74h-152l-39 -169h-86l38 169h-153l17 74h153l39 169h86l-38 -169h153z" />
    <glyph glyph-name="comma" unicode="," horiz-adv-x="167" 
d="M23 118h86l-26 -113q-11 -48 -22.5 -72t-30.5 -41q-22 -19 -62 -29l11 52q26 9 37 25.5t18 59.5h-37z" />
    <glyph glyph-name="hyphen" unicode="-" horiz-adv-x="266" 
d="M267 331l-18 -78h-216l18 78h216z" />
    <glyph glyph-name="period" unicode="." horiz-adv-x="167" 
d="M108 118l-27 -118h-86l27 118h86z" />
    <glyph glyph-name="slash" unicode="/" horiz-adv-x="292" 
d="M404 706l-364 -706h-84l367 706h81z" />
    <glyph glyph-name="zero" unicode="0" horiz-adv-x="375" 
d="M408 494l-68 -297q-13 -51 -16 -62q-40 -144 -177 -144q-61 0 -98.5 32.5t-37.5 85.5q0 24 7 57l93 403q43 147 175 147q62 0 101 -33t39 -85q0 -26 -18 -104zM252 195l72 316q11 49 11 70q0 26 -15.5 40.5t-43.5 14.5q-39 0 -60 -30q-14 -22 -31 -94l-73 -317
q-11 -48 -11 -68q0 -56 60 -56q39 0 60 30q15 24 31 94z" />
    <glyph glyph-name="one" unicode="1" horiz-adv-x="375" 
d="M356 706l-164 -706h-88l128 554h-117l16 67h6q69 0 100 18t45 67h74z" />
    <glyph glyph-name="two" unicode="2" horiz-adv-x="375" 
d="M286 0h-309l20 85l176 213q85 103 116 156q37 66 37 123q0 27 -14.5 42.5t-40.5 15.5q-15 0 -26.5 -4.5t-20 -15.5t-14.5 -21.5t-11.5 -30t-9 -32.5t-8.5 -38.5t-8 -38.5h-81q10 52 19 87t23.5 71t33.5 56.5t47.5 33.5t65.5 13q63 0 98 -34.5t35 -98.5q0 -125 -151 -305
l-169 -201h210z" />
    <glyph glyph-name="three" unicode="3" horiz-adv-x="375" 
d="M184 505h-79q16 104 55 157.5t121 53.5q127 0 127 -113q0 -46 -28 -136q-16 -51 -37.5 -69t-60.5 -21q64 -21 64 -93q0 -59 -29 -156q-42 -139 -173 -139q-65 0 -102 29.5t-37 81.5q0 32 21 110h80q-17 -51 -17 -91q0 -52 61 -52q59 0 75 55q33 106 33 149q0 61 -75 61
q-13 0 -25 -1l19 79q12 -1 25 -1q63 0 85 40q13 23 24 64.5t11 71.5q0 54 -54 54q-35 0 -55 -32t-29 -102z" />
    <glyph glyph-name="four" unicode="4" horiz-adv-x="375" 
d="M392 706l-103 -473h62l-15 -75h-63l-36 -158h-83l36 158h-182l20 97l241 451h123zM298 637l-203 -404h111z" />
    <glyph glyph-name="five" unicode="5" horiz-adv-x="375" 
d="M430 706l-16 -76h-193l-37 -175q28 30 79 30q47 0 75 -27t28 -73q0 -31 -8 -68l-31 -150q-20 -97 -58.5 -136.5t-123.5 -39.5q-64 0 -100.5 30t-36.5 82q0 35 18 103h83l-7 -29q-7 -32 -7 -47q0 -61 66 -61q34 0 51.5 21t29.5 77l29 138q5 24 5 50q0 52 -54 52
q-31 0 -47.5 -18.5t-24.5 -64.5h-79l86 382h273z" />
    <glyph glyph-name="six" unicode="6" horiz-adv-x="375" 
d="M412 539h-83q8 33 8 49q0 50 -59 50q-41 0 -59 -29q-14 -24 -31 -97l-24 -101q37 48 97 48q49 0 78.5 -29t29.5 -78q0 -32 -11 -76l-26 -111q-20 -88 -57 -131t-126 -43q-64 0 -98 29t-34 83q0 29 15 93l80 340q24 103 63 141t114 38q62 0 97.5 -29t35.5 -78
q0 -29 -10 -69zM245 164l31 132q5 23 5 36q0 25 -16 40.5t-42 15.5q-32 0 -52.5 -21.5t-33.5 -76.5l-26 -108q-9 -37 -9 -58q0 -56 61 -56q33 0 51.5 21.5t30.5 74.5z" />
    <glyph glyph-name="seven" unicode="7" horiz-adv-x="375" 
d="M114 628l18 78h308l-15 -65q-57 -74 -107 -168q-56 -105 -104 -235q-38 -105 -71 -238h-95q19 86 46 161q25 71 58 145q64 143 163 292l20 30h-221z" />
    <glyph glyph-name="eight" unicode="8" horiz-adv-x="376" 
d="M349 237l-25 -106q-17 -74 -55.5 -106.5t-107.5 -32.5q-68 0 -108 32.5t-40 87.5q0 18 10 65l25 111q9 40 36.5 65.5t67.5 30.5q-51 20 -51 72q0 15 6 42l21 90q15 64 51.5 95.5t105.5 31.5q65 0 104 -30.5t39 -80.5q0 -14 -9 -57l-18 -81q-19 -85 -99 -94q54 -26 54 -83
q0 -22 -7 -52zM321 485l17 74q4 19 4 31q0 26 -17 40.5t-47 14.5q-56 0 -70 -65l-16 -70q-7 -32 -7 -43q0 -25 16 -39t44 -14q60 0 76 71zM241 147l21 91q5 22 5 38q0 55 -66 55q-29 0 -46 -16t-25 -51l-21 -89q-9 -41 -9 -53q0 -25 18 -39.5t48 -14.5q31 0 48 18t27 61z
" />
    <glyph glyph-name="nine" unicode="9" horiz-adv-x="375" 
d="M26 168h82q-7 -29 -7 -50q0 -23 15.5 -36.5t43.5 -13.5q39 0 58 30q13 20 31 96l24 102q-36 -48 -96 -48q-49 0 -78.5 29t-29.5 77q0 32 10 76l26 111q22 94 60.5 134t123.5 40q64 0 98 -29t34 -83q0 -25 -16 -92l-79 -340q-24 -103 -64.5 -141.5t-112.5 -38.5
q-62 0 -98 28.5t-36 78.5q0 26 11 70zM301 417l26 108q9 37 9 58q0 56 -61 56q-33 0 -52 -22t-31 -74l-30 -132q-5 -23 -5 -36q0 -26 15.5 -41.5t42.5 -15.5q31 0 51.5 21.5t34.5 77.5z" />
    <glyph glyph-name="colon" unicode=":" horiz-adv-x="208" 
d="M231 477l-27 -118h-86l27 118h86zM149 118l-27 -118h-86l27 118h86z" />
    <glyph glyph-name="semicolon" unicode=";" horiz-adv-x="208" 
d="M231 477l-27 -118h-86l27 118h86zM148 118l-26 -113q-16 -72 -40 -101t-75 -41l11 52q26 9 37 25.5t18 59.5h-37l26 118h86z" />
    <glyph glyph-name="less" unicode="&#x3c;" horiz-adv-x="559" 
d="M510 537l-21 -92l-310 -146l246 -148l-19 -81l-316 194l18 78z" />
    <glyph glyph-name="equal" unicode="=" horiz-adv-x="559" 
d="M527 425l-17 -73h-389l16 73h390zM487 255l-16 -72h-390l17 72h389z" />
    <glyph glyph-name="greater" unicode="&#x3e;" horiz-adv-x="559" 
d="M513 346l-18 -79l-402 -194l21 91l310 146l-246 148l19 81z" />
    <glyph glyph-name="question" unicode="?" horiz-adv-x="396" 
d="M250 190h-66l4 20q13 68 26 99t55 81l16 19q67 81 67 175q0 54 -62 54q-24 0 -36.5 -5t-25.5 -28.5t-24 -72.5l-14 -65h-78l16 74q20 95 58 135.5t119 40.5q64 0 99.5 -31t35.5 -87q0 -48 -19.5 -103.5t-49.5 -90.5l-69 -82q-25 -29 -33.5 -52t-18.5 -81zM250 118
l-27 -118h-86l27 118h86z" />
    <glyph glyph-name="at" unicode="@" horiz-adv-x="816" 
d="M552 495h65l-54 -210q-21 -79 -21 -118q0 -37 27 -37q32 0 69 45q41 49 65 118t24 140q0 109 -60.5 168.5t-171.5 59.5q-86 0 -163 -41t-132 -117q-41 -57 -66.5 -136.5t-25.5 -151.5q0 -128 81.5 -207.5t213.5 -79.5q84 0 171 40t155 109l30 -41q-161 -159 -361 -159
q-162 0 -257 94.5t-95 244.5q0 205 134 351t321 146q132 0 208.5 -74t76.5 -201q0 -86 -35.5 -172t-92 -141t-113.5 -55q-73 0 -74 85q-66 -84 -143 -84q-53 0 -85 41t-32 110q0 113 67.5 204.5t149.5 91.5q77 0 107 -85zM507 364q0 39 -20.5 64t-52.5 25q-54 0 -99 -65.5
t-45 -149.5q0 -102 66 -102q59 0 105 70t46 158z" />
    <glyph glyph-name="A" unicode="A" horiz-adv-x="365" 
d="M360 706l-54 -706h-87l10 132h-131l-52 -132h-92l286 706h120zM275 605l-144 -391h105z" />
    <glyph glyph-name="B" unicode="B" horiz-adv-x="413" 
d="M164 706h119q95 0 131.5 -32t36.5 -109q0 -82 -38 -128.5t-105 -55.5q19 -4 33 -10t29 -18t22.5 -33.5t7.5 -52.5q0 -44 -13.5 -95t-35.5 -88q-26 -45 -75.5 -64.5t-152.5 -19.5h-122zM231 626l-49 -210h75q50 0 79 38t29 105t-69 67h-65zM164 339l-59 -263h55
q85 0 114 42q16 25 28 67t12 77q0 34 -17 52t-36.5 21.5t-52.5 3.5h-44z" />
    <glyph glyph-name="C" unicode="C" horiz-adv-x="392" 
d="M430 485h-82l9 36q10 37 10 66q0 27 -16 42t-45 15q-53 0 -79 -43.5t-45 -128.5l-65 -295q-6 -27 -6 -45q0 -68 69 -68q45 0 65 26t40 106l13 52h82l-9 -36q-15 -62 -28.5 -97.5t-36 -67t-56.5 -44.5t-84 -13q-68 0 -106 35t-38 97q0 32 9 72l66 284q30 132 80 185.5
t140 53.5q63 0 99 -28.5t36 -78.5q0 -37 -11 -79z" />
    <glyph glyph-name="D" unicode="D" horiz-adv-x="430" 
d="M164 706h153q154 0 154 -127q0 -43 -18 -118l-51 -219q-18 -80 -33.5 -121.5t-45.5 -72t-71.5 -39.5t-114.5 -9h-136zM233 625l-126 -547h61q24 0 42.5 3.5t32 8.5t24 17t16.5 21t13 30.5t10 35t10 43.5l51 227q14 60 14 87q0 41 -22 57.5t-77 16.5h-49z" />
    <glyph glyph-name="E" unicode="E" 
d="M455 706l-18 -79h-206l-48 -210h192l-19 -80h-192l-59 -258h225l-19 -79h-310l163 706h291z" />
    <glyph glyph-name="F" unicode="F" horiz-adv-x="355" 
d="M462 706l-18 -79h-213l-47 -208h188l-18 -77h-188l-79 -342h-86l163 706h298z" />
    <glyph glyph-name="G" unicode="G" horiz-adv-x="424" 
d="M423 365l-84 -365h-74l12 49q-62 -58 -135 -58q-57 0 -89 33.5t-32 93.5q0 33 12 88l70 295q28 117 76 166.5t142 49.5q70 0 107.5 -29t37.5 -82q0 -28 -9 -66l-12 -50h-84l8 36q9 39 9 60q0 57 -67 57q-49 0 -74 -30t-45 -114l-59 -250q-21 -94 -21 -124q0 -29 18 -45.5
t50 -16.5q51 0 83 40q26 32 44 114l16 72h-104l18 76h186z" />
    <glyph glyph-name="H" unicode="H" horiz-adv-x="433" 
d="M494 706l-163 -706h-85l73 328h-157l-75 -328h-86l163 706h85l-70 -301h157l73 301h85z" />
    <glyph glyph-name="I" unicode="I" horiz-adv-x="188" 
d="M249 706l-162 -706h-86l163 706h85z" />
    <glyph glyph-name="J" unicode="J" horiz-adv-x="271" 
d="M335 706l-120 -530q-20 -90 -38 -120q-36 -65 -133 -65q-48 0 -93 17l24 74q33 -13 66 -13q41 0 58 24t33 95l116 518h87z" />
    <glyph glyph-name="K" unicode="K" horiz-adv-x="386" 
d="M492 706l-252 -340l113 -366h-87l-102 340l-78 -340h-85l163 706h85l-72 -306l223 306h92z" />
    <glyph glyph-name="L" unicode="L" horiz-adv-x="349" 
d="M306 79l-18 -79h-287l164 706h86l-146 -627h201z" />
    <glyph glyph-name="M" unicode="M" horiz-adv-x="564" 
d="M626 706l-163 -706h-79l157 639l-255 -639h-105l39 639l-137 -639h-82l163 706h129l-43 -630l246 630h130z" />
    <glyph glyph-name="N" unicode="N" horiz-adv-x="440" 
d="M502 706l-164 -706h-120q2 596 2 639l-136 -639h-83l164 706h118l2 -640l135 640h82z" />
    <glyph glyph-name="O" unicode="O" horiz-adv-x="422" 
d="M451 505l-81 -346q-21 -90 -63 -128.5t-121 -38.5q-78 0 -120.5 33t-42.5 92q0 31 12 82l81 346q20 88 66.5 129t123.5 41q73 0 114.5 -34t41.5 -94q0 -34 -11 -82zM281 165l82 344q11 47 11 66q0 66 -73 66q-41 0 -62.5 -22t-36.5 -86l-81 -348q-8 -34 -8 -56
q0 -65 74 -65q38 0 59.5 23.5t34.5 77.5z" />
    <glyph glyph-name="P" unicode="P" horiz-adv-x="402" 
d="M164 706h114q81 0 113 -12q64 -25 64 -116q0 -53 -14 -111t-36 -95q-47 -81 -183 -81h-69l-67 -291h-85zM231 626l-60 -258h47q54 0 79.5 10t38.5 34q10 18 21 63.5t11 73.5q0 44 -20 60.5t-75 16.5h-42z" />
    <glyph glyph-name="Q" unicode="Q" horiz-adv-x="422" 
d="M388 -61l-53 -46l-90 105q-28 -6 -58 -6q-79 0 -121.5 32.5t-42.5 92.5q0 31 12 82l81 346q20 88 66.5 129t123.5 41q73 0 114.5 -34t41.5 -94q0 -34 -11 -82l-81 -346q-21 -90 -65 -129zM281 165l82 344q11 47 11 66q0 66 -73 66q-41 0 -62.5 -22t-36.5 -86l-81 -348
q-8 -34 -8 -56q0 -65 74 -65q38 0 59.5 23.5t34.5 77.5z" />
    <glyph glyph-name="R" unicode="R" horiz-adv-x="413" 
d="M164 706h129q55 0 84 -7.5t49 -26.5q32 -32 32 -97q0 -57 -17 -114.5t-45 -91.5q-33 -42 -93 -52l56 -317h-87l-49 310h-67l-72 -310h-83zM229 626l-57 -247h40q57 0 84 10.5t41 36.5q31 62 31 130q0 43 -21 56.5t-80 13.5h-38z" />
    <glyph glyph-name="S" unicode="S" horiz-adv-x="366" 
d="M409 493h-79l10 44q6 26 6 40q0 64 -62 64q-43 0 -66.5 -28t-23.5 -78q0 -26 7 -45t32 -58l69 -108q43 -68 43 -133q0 -93 -50.5 -146t-138.5 -53q-74 0 -116 36.5t-42 100.5q0 31 9 67l13 53h84l-8 -34q-13 -56 -13 -76q0 -74 80 -74q45 0 70.5 31t25.5 86q0 44 -34 97
l-77 120q-43 68 -43 125q0 89 49.5 139.5t135.5 50.5q137 0 137 -116q0 -24 -11 -73z" />
    <glyph glyph-name="T" unicode="T" horiz-adv-x="370" 
d="M471 706l-19 -79h-126l-145 -627h-87l145 627h-138l19 79h351z" />
    <glyph glyph-name="U" unicode="U" horiz-adv-x="432" 
d="M496 706l-118 -510q-15 -66 -30.5 -102t-38.5 -58q-47 -47 -129 -47q-73 0 -112.5 31t-39.5 88q0 26 15 92l117 506h85l-126 -546q-4 -15 -4 -33q0 -63 72 -63q42 0 62 22q24 26 45 116l116 504h86z" />
    <glyph glyph-name="V" unicode="V" horiz-adv-x="396" 
d="M502 706l-298 -706h-124l49 706h87l-55 -631l246 631h95z" />
    <glyph glyph-name="W" unicode="W" horiz-adv-x="651" 
d="M757 706l-286 -706h-116l61 585l-218 -585h-118l52 706h87l-61 -633l228 633h113l-69 -633l241 633h86z" />
    <glyph glyph-name="X" unicode="X" horiz-adv-x="389" 
d="M481 706l-203 -340l60 -366h-88l-41 295l-166 -295h-97l231 377l-50 329h87l31 -261l142 261h94z" />
    <glyph glyph-name="Y" unicode="Y" horiz-adv-x="388" 
d="M507 706l-262 -433l-62 -273h-87l63 275l-48 431h87l25 -344l187 344h97z" />
    <glyph glyph-name="Z" unicode="Z" horiz-adv-x="353" 
d="M444 706l-15 -67l-349 -561h234l-18 -78h-327l17 72l341 555h-194l18 79h293z" />
    <glyph glyph-name="bracketleft" unicode="[" horiz-adv-x="313" 
d="M404 718l-14 -61h-106l-178 -766h107l-15 -62h-191l206 889h191z" />
    <glyph glyph-name="backslash" unicode="\" horiz-adv-x="355" 
d="M309 0h-75l-122 706h74z" />
    <glyph glyph-name="bracketright" unicode="]" horiz-adv-x="313" 
d="M331 718l-206 -888h-190l13 60h107l177 766h-106l15 62h190z" />
    <glyph glyph-name="asciicircum" unicode="^" horiz-adv-x="559" 
d="M517 356h-84l-56 272l-178 -270h-95l247 348h80z" />
    <glyph glyph-name="underscore" unicode="_" horiz-adv-x="500" 
d="M418 -206h-519l13 59h520z" />
    <glyph glyph-name="grave" unicode="`" horiz-adv-x="208" 
d="M182 564h-64l-92 107h105z" />
    <glyph glyph-name="a" unicode="a" horiz-adv-x="347" 
d="M142 334h-73l1 10q10 92 46 127t113 35q123 0 123 -97q0 -20 -10 -64l-56 -239q-11 -51 -11 -73q0 -16 13 -33h-94l6 48q-41 -58 -100 -58q-46 0 -73.5 29.5t-27.5 78.5q0 63 31 103.5t96 71.5l37 18q63 31 100 62l5 20q4 18 4 28q0 42 -52 42q-37 0 -53 -20.5t-24 -80.5
zM222 170l24 105q-19 -15 -54 -35l-27 -15q-45 -25 -65 -49.5t-20 -66.5q0 -27 12.5 -42.5t34.5 -15.5q68 0 95 119z" />
    <glyph glyph-name="b" unicode="b" horiz-adv-x="369" 
d="M159 706h79l-58 -241q38 41 94 41q43 0 71 -27t28 -68q0 -26 -11 -75l-43 -187q-19 -81 -55 -119.5t-92 -38.5q-59 0 -90 56l-11 -47h-75zM153 338l-39 -168q-10 -41 -10 -56q0 -26 15.5 -42t41.5 -16q57 0 76 87l45 195q7 29 7 52q0 25 -13.5 39t-36.5 14
q-62 0 -86 -105z" />
    <glyph glyph-name="c" unicode="c" horiz-adv-x="346" 
d="M341 319h-75l4 18q9 37 9 60q0 49 -48 49q-33 0 -49.5 -20t-31.5 -85l-34 -147q-16 -71 -16 -93t13.5 -34.5t36.5 -12.5q37 0 55.5 31t30.5 101h78q-20 -110 -59 -153t-113 -43q-57 0 -90.5 27.5t-33.5 73.5q0 27 17 102l34 148q21 93 58.5 129t104.5 36q59 0 90.5 -25.5
t31.5 -74.5q0 -13 -10 -70z" />
    <glyph glyph-name="d" unicode="d" horiz-adv-x="367" 
d="M442 706l-163 -706h-75l10 46q-44 -54 -100 -54q-45 0 -71 27.5t-26 74.5q0 25 18 101l31 130q23 98 48 132q39 52 101 52q60 0 89 -52l57 249h81zM239 179l32 133q12 50 12 69q0 30 -15 46.5t-41 16.5q-38 0 -57 -36q-10 -20 -27 -91l-29 -120q-15 -63 -15 -86
q0 -25 13 -39t35 -14q63 0 92 121z" />
    <glyph glyph-name="e" unicode="e" horiz-adv-x="344" 
d="M321 233h-199l-15 -65q-9 -43 -9 -58q0 -53 52 -53q30 0 46.5 22t26.5 75h81q-17 -77 -42 -112q-37 -51 -120 -51q-125 0 -125 107q0 26 11 72l42 182q20 86 51 115q40 38 110 38q54 0 87 -27.5t33 -73.5q0 -37 -19 -121zM137 297h120l11 54q6 29 6 46q0 48 -49 48
q-36 0 -54 -29q-11 -18 -29 -98z" />
    <glyph glyph-name="f" unicode="f" horiz-adv-x="220" 
d="M70 438l14 58h52l13 57q20 87 47 123t83 36q32 0 65 -11l-15 -65q-17 8 -40 8q-26 0 -38 -21t-24 -74l-12 -53h71l-13 -58h-70l-102 -438h-79l101 438h-53z" />
    <glyph glyph-name="g" unicode="g" 
d="M321 497h74l-123 -526q-33 -139 -169 -139q-55 0 -89 27.5t-34 72.5q0 12 3 28h75q-2 -7 -2 -15q0 -49 54 -49q23 0 39.5 8t25.5 25t12 26.5t8 29.5l11 46q-35 -34 -85 -34t-76.5 26.5t-26.5 76.5q0 24 12 77l38 162q20 86 54.5 126t94.5 40q64 0 94 -53zM246 196l28 121
q12 49 12 69q0 27 -14.5 42t-40.5 15q-32 0 -49.5 -22t-36.5 -101l-30 -125q-14 -60 -14 -81q0 -52 52 -52q39 0 58 30.5t35 103.5z" />
    <glyph glyph-name="h" unicode="h" 
d="M238 706l-57 -249q40 49 94 49q43 0 69.5 -24.5t26.5 -63.5q0 -26 -10 -69l-81 -349h-80l80 350q6 24 6 40q0 24 -13.5 38t-36.5 14q-31 0 -49 -19.5t-28 -61.5l-83 -361h-80l162 706h80z" />
    <glyph glyph-name="i" unicode="i" horiz-adv-x="165" 
d="M234 691l-24 -103h-80l24 103h80zM191 497l-115 -497h-80l114 497h81z" />
    <glyph glyph-name="j" unicode="j" horiz-adv-x="180" 
d="M249 691l-24 -104h-80l24 104h80zM203 497l-118 -508q-11 -47 -18 -69t-22.5 -46.5t-40.5 -33.5t-64 -9q-17 0 -57 4l16 66q31 -3 44 -3q28 0 39 17.5t29 92.5l113 489h79z" />
    <glyph glyph-name="k" unicode="k" horiz-adv-x="354" 
d="M422 497l-177 -196l63 -301h-82l-44 235l-69 -73l-38 -162h-79l164 706h79l-98 -424l186 215h95z" />
    <glyph glyph-name="l" unicode="l" horiz-adv-x="165" 
d="M239 706l-163 -706h-80l162 706h81z" />
    <glyph glyph-name="m" unicode="m" horiz-adv-x="568" 
d="M110 497h78l-8 -41q42 50 95 50q61 0 84 -51q49 52 113 52q45 0 72 -24.5t27 -64.5q0 -32 -9 -69l-82 -349h-80l81 350q5 20 5 40q0 24 -13.5 38t-36.5 14q-24 0 -43.5 -17t-25.5 -43l-89 -382h-80l80 350q6 24 6 40q0 24 -13.5 38t-36.5 14q-56 0 -75 -81l-83 -361h-80z
" />
    <glyph glyph-name="n" unicode="n" 
d="M110 497h78l-8 -40q39 49 96 49q42 0 68.5 -24.5t26.5 -63.5q0 -26 -10 -69l-81 -349h-80l80 350q6 24 6 40q0 24 -13.5 38t-36.5 14q-30 0 -48.5 -19t-28.5 -62l-83 -361h-80z" />
    <glyph glyph-name="o" unicode="o" horiz-adv-x="354" 
d="M351 343l-49 -212q-18 -77 -54.5 -108.5t-102.5 -31.5q-62 0 -95 27t-33 78q0 29 10 73l44 192q17 76 54.5 110t104.5 34q129 0 129 -109q0 -15 -8 -53zM222 134l48 215q6 27 6 42q0 50 -52 50q-29 0 -45 -17t-27 -67l-46 -212q-7 -33 -7 -46q0 -46 53 -46q29 0 44.5 18
t25.5 63z" />
    <glyph glyph-name="p" unicode="p" horiz-adv-x="367" 
d="M110 497h75l-11 -47q44 54 101 54q44 0 70.5 -28t26.5 -74q0 -25 -18 -101l-31 -130q-23 -96 -49 -132q-38 -52 -101 -52q-59 0 -88 52l-45 -198h-81zM245 179l29 120q16 69 16 86q0 25 -13 39t-36 14q-65 0 -93 -121l-31 -132q-11 -46 -11 -70q0 -30 15 -46.5t41 -16.5
q39 0 56 36q11 21 27 91z" />
    <glyph glyph-name="q" unicode="q" horiz-adv-x="369" 
d="M320 497h75l-150 -657h-79l44 191q-41 -41 -93 -41q-43 0 -71.5 27t-28.5 68q0 26 11 75l43 187q19 81 55 119.5t93 38.5q59 0 90 -56zM231 158l39 168q10 42 10 56q0 27 -15 42.5t-41 15.5q-58 0 -77 -87l-44 -195q-7 -29 -7 -52q0 -25 13 -39t36 -14q62 0 86 105z" />
    <glyph glyph-name="r" unicode="r" horiz-adv-x="251" 
d="M111 497h77l-21 -85q25 43 62 68t78 25h14l-21 -85q-8 1 -19 1q-56 0 -90.5 -37t-52.5 -118l-60 -266h-82z" />
    <glyph glyph-name="s" unicode="s" horiz-adv-x="310" 
d="M321 346h-71q6 28 6 47q0 50 -52 50q-30 0 -46 -18t-16 -41q0 -17 8 -32.5t40 -52.5l48 -55q26 -30 35.5 -53t9.5 -54q0 -64 -42 -104.5t-108 -40.5q-61 0 -96.5 30t-35.5 81q0 27 12 75h76q-11 -41 -11 -64q0 -58 63 -58q31 0 48 19t17 53q0 19 -8 34t-31 42l-51 59
q-48 55 -48 107q0 61 39.5 98.5t103.5 37.5q55 0 86.5 -27t31.5 -74q0 -23 -8 -59z" />
    <glyph glyph-name="t" unicode="t" horiz-adv-x="223" 
d="M288 496l-14 -60h-72l-71 -305q-6 -24 -6 -41q0 -14 9.5 -22.5t25.5 -8.5q10 0 26 4l-16 -65q-23 -7 -47 -7q-86 0 -86 75q0 18 4 33l79 337h-53l14 60h53l20 85l88 35l-28 -120h74z" />
    <glyph glyph-name="u" unicode="u" 
d="M392 497l-114 -497h-78l8 39q-40 -49 -96 -49q-42 0 -69 24.5t-27 64.5q0 24 10 68l82 350h80l-81 -351q-5 -20 -5 -40q0 -24 13.5 -38t36.5 -14q30 0 48 18.5t28 62.5l84 362h80z" />
    <glyph glyph-name="v" unicode="v" horiz-adv-x="315" 
d="M384 497l-226 -497h-91q4 473 4 497h85l-22 -407l163 407h87z" />
    <glyph glyph-name="w" unicode="w" horiz-adv-x="521" 
d="M589 497l-212 -497h-96l31 421l-168 -421h-98l23 497h87l-45 -425l163 425h107l-30 -419l154 419h84z" />
    <glyph glyph-name="x" unicode="x" horiz-adv-x="333" 
d="M388 497l-164 -231l59 -266h-85l-33 197l-121 -197h-92l186 266l-46 231h88l18 -162l98 162h92z" />
    <glyph glyph-name="y" unicode="y" horiz-adv-x="315" 
d="M295 497h88l-224 -517q-38 -89 -74 -116q-37 -26 -91 -26q-20 0 -59 8l16 68q29 -8 45 -8q42 0 62 32q13 23 13 83q-2 439 -2 476h83l-14 -409z" />
    <glyph glyph-name="z" unicode="z" horiz-adv-x="292" 
d="M343 497l-16 -68l-262 -364h176l-15 -65h-266l15 65l260 364h-149l16 68h241z" />
    <glyph glyph-name="braceleft" unicode="{" horiz-adv-x="302" 
d="M398 720l-13 -58h-17q-21 0 -35.5 -5t-23 -10.5t-15.5 -23.5t-10 -29t-10 -41l-33 -149q-14 -65 -39 -94.5t-74 -40.5q57 -20 57 -80q0 -26 -7 -58l-31 -138q-12 -57 -12 -65q0 -44 56 -44h16l-13 -58h-41q-48 0 -75.5 25.5t-27.5 70.5q0 20 13 77l31 137q8 32 8 51
q0 26 -15.5 38t-53.5 17l14 60q56 5 75.5 23t34.5 83l32 145q10 46 19 72t26 50.5t44.5 34.5t68.5 10h51z" />
    <glyph glyph-name="bar" unicode="|" horiz-adv-x="180" 
d="M256 748l-232 -998h-80l231 998h81z" />
    <glyph glyph-name="braceright" unicode="}" horiz-adv-x="302" 
d="M141 720h41q49 0 76.5 -24.5t27.5 -71.5q0 -20 -13 -77l-31 -137q-8 -40 -8 -51q0 -26 15 -38.5t53 -16.5l-14 -60q-56 -6 -76 -23.5t-34 -82.5l-31 -145q-10 -45 -19 -71.5t-26.5 -51t-45 -34.5t-68.5 -10h-51l13 58h17q21 0 35.5 5t23 10.5t15.5 23.5t10 29t10 41
l34 149q15 66 39 95.5t73 39.5q-57 20 -57 80q0 21 8 58l31 138q11 49 11 65q0 44 -56 44h-16z" />
    <glyph glyph-name="asciitilde" unicode="~" horiz-adv-x="559" 
d="M492 363l26 -65q-35 -33 -64 -49q-36 -20 -70 -20q-33 0 -84 26l-23 12q-43 22 -70 22q-21 0 -37 -9.5t-49 -38.5l-9 -8l-27 67q29 29 49 43q38 26 82 26q31 0 79 -23l42 -20q39 -18 53 -18q26 0 52 16q20 11 50 39z" />
    <glyph glyph-name="uni00A0" unicode="&#xa0;" horiz-adv-x="208" 
 />
    <glyph glyph-name="exclamdown" unicode="&#xa1;" horiz-adv-x="208" 
d="M251 706l-27 -118h-86l27 118h86zM186 514l-49 -292l-51 -222h-86l51 222l91 292h44z" />
    <glyph glyph-name="cent" unicode="&#xa2;" horiz-adv-x="365" 
d="M349 319h-74l3 14q8 37 8 61q0 49 -47 49q-33 0 -49.5 -20t-31.5 -86l-42 -182q-6 -30 -6 -52t13.5 -34.5t36.5 -12.5q64 0 84 130h79q-19 -102 -52.5 -144.5t-101.5 -50.5l-20 -83h-57l20 86q-40 7 -62.5 33t-22.5 64q0 27 17 102l34 149q21 92 56 126.5t96 37.5l19 84
h57l-20 -89q76 -16 76 -95q0 -30 -9 -70z" />
    <glyph glyph-name="sterling" unicode="&#xa3;" horiz-adv-x="460" 
d="M466 489h-88q15 63 15 92q0 65 -72 65q-50 0 -72.5 -35t-22.5 -111q0 -39 11 -109l2 -12h138l-17 -74h-114l1 -11q2 -32 2 -40q0 -95 -37 -156q37 -27 63 -27q33 0 55 44t26 118h81q-9 -116 -53 -179.5t-117 -63.5q-58 0 -107 48l-7 -6q-45 -39 -91 -39q-37 0 -59.5 21
t-22.5 56q0 40 28.5 66t72.5 26q36 0 68 -24q17 45 17 104q0 26 -6 63h-99l17 74h73q-10 77 -10 125q0 213 179 213q78 0 119 -34t41 -100q0 -39 -14 -94zM113 88q-24 17 -38 17q-13 0 -21.5 -7t-8.5 -17q0 -19 22 -19q19 0 46 26z" />
    <glyph glyph-name="currency" unicode="&#xa4;" horiz-adv-x="661" 
d="M657 557l-78 -69q33 -56 33 -117q0 -111 -72 -198l64 -77l-60 -54l-64 78q-72 -43 -148 -43q-47 0 -80 12t-72 44l-80 -69l-49 60l79 68q-34 64 -34 125q0 111 72 191l-63 78l59 54l63 -77q70 42 146 42q89 0 157 -55l77 67zM534 361q0 78 -45.5 125.5t-119.5 47.5
q-83 0 -138.5 -61t-55.5 -152q0 -76 45 -125t114 -49q85 0 142.5 62t57.5 152z" />
    <glyph glyph-name="yen" unicode="&#xa5;" horiz-adv-x="435" 
d="M530 706l-204 -347h87l-13 -58h-108l-16 -27l-7 -27h118l-13 -57h-118l-44 -190h-88l44 190h-117l13 57h117l7 27l-3 27h-108l13 58h86l-42 347h93l20 -358l187 358h96z" />
    <glyph glyph-name="brokenbar" unicode="&#xa6;" horiz-adv-x="180" 
d="M256 748l-98 -417h-80l96 417h82zM132 216l-108 -466h-80l107 466h81z" />
    <glyph glyph-name="section" unicode="&#xa7;" horiz-adv-x="417" 
d="M440 528h-79l3 14q8 38 8 50q0 25 -17.5 39t-49.5 14q-40 0 -63.5 -27.5t-23.5 -73.5q0 -30 14.5 -44.5t61.5 -38.5q73 -37 96.5 -65.5t23.5 -67.5q0 -79 -97 -149q24 -41 24 -84q0 -93 -49 -146.5t-135 -53.5q-77 0 -118.5 34.5t-41.5 97.5q0 32 12 73h87
q-12 -41 -12 -61q0 -68 79 -68q45 0 66.5 30.5t21.5 77.5q0 31 -16.5 50.5t-64.5 44.5q-72 38 -98 64t-26 65q0 93 108 153q-22 28 -22 72q0 82 47 134.5t127 52.5q71 0 110 -28.5t39 -81.5q0 -27 -15 -77zM187 422q-63 -34 -63 -87q0 -24 14.5 -38t71.5 -44q60 -31 72 -41
q57 38 57 87q0 39 -46 63l-57 30q-34 18 -49 30z" />
    <glyph glyph-name="dieresis" unicode="&#xa8;" horiz-adv-x="208" 
d="M230 666l-24 -103h-77l24 103h77zM80 666l-23 -103h-79l23 103h79z" />
    <glyph glyph-name="copyright" unicode="&#xa9;" horiz-adv-x="832" 
d="M579 414h-73l5 23q5 22 5 40q0 47 -50 47q-19 0 -31.5 -5.5t-20.5 -20t-11.5 -25t-8.5 -34.5l-30 -130q-12 -51 -12 -74q0 -52 54 -52q30 0 45.5 24t29.5 90h72q-1 -6 -2.5 -13.5t-3 -15.5t-2.5 -11q-16 -72 -47 -102q-34 -34 -98 -34q-58 0 -91.5 28.5t-33.5 76.5
q0 26 12 78l31 132q17 73 51 110.5t100 37.5q58 0 89.5 -24.5t31.5 -69.5q0 -21 -4 -41zM790 354q0 -151 -103 -254t-254 -103q-148 0 -251.5 104t-103.5 252q0 149 104 252.5t252 103.5q149 0 252.5 -103t103.5 -252zM754 352q0 136 -93 229.5t-227 93.5
q-133 0 -226.5 -94.5t-93.5 -228.5t93 -227.5t226 -93.5t227 93.5t94 227.5z" />
    <glyph glyph-name="ordfeminine" unicode="&#xaa;" horiz-adv-x="274" 
d="M178 600h-66l1 7q7 45 20 68q25 48 107 48q105 0 105 -72q0 -18 -6 -44l-38 -158q-7 -28 -7 -53q0 -20 13 -35h-77v34q-34 -41 -82 -41q-40 0 -63.5 23.5t-23.5 63.5q0 76 97 118l63 27q33 14 51 27l3 14q3 18 3 19q0 28 -41 28q-47 0 -55 -49zM261 553l-83 -42
q-45 -23 -45 -67q0 -43 41 -43q30 0 45.5 21t19.5 40z" />
    <glyph glyph-name="guillemotleft" unicode="&#xab;" horiz-adv-x="354" 
d="M383 479l-29 -127l-93 -76l54 -91l-24 -106l-103 164l20 86zM221 479l-29 -127l-92 -76l53 -91l-24 -106l-103 164l20 86z" />
    <glyph glyph-name="logicalnot" unicode="&#xac;" horiz-adv-x="559" 
d="M503 333l-59 -258h-87l42 185h-328l18 73h414z" />
    <glyph glyph-name="uni00AD" unicode="&#xad;" horiz-adv-x="266" 
d="M267 331l-18 -78h-216l18 78h216z" />
    <glyph glyph-name="registered" unicode="&#xae;" horiz-adv-x="832" 
d="M790 354q0 -151 -103 -254t-254 -103q-148 0 -251.5 104t-103.5 252q0 149 104 252.5t252 103.5q149 0 252.5 -103t103.5 -252zM754 352q0 136 -93 229.5t-227 93.5q-133 0 -226.5 -94.5t-93.5 -228.5t93 -227.5t226 -93.5t227 93.5t94 227.5zM367 579h98q67 0 98 -23.5
t31 -83.5t-28 -98.5t-77 -45.5l55 -198h-73l-51 193h-39l-43 -193h-73zM427 521l-34 -146h23q56 0 75 13q31 21 31 78q0 32 -14.5 43.5t-59.5 11.5h-21z" />
    <glyph glyph-name="macron" unicode="&#xaf;" horiz-adv-x="208" 
d="M207 575h-217l12 64h217z" />
    <glyph glyph-name="degree" unicode="&#xb0;" horiz-adv-x="355" 
d="M425 594q0 -67 -47 -114t-113 -47q-67 0 -114 47t-47 114q0 68 46.5 115t113.5 47q69 0 115 -46.5t46 -115.5zM357 596q0 39 -26 66t-64 27q-41 0 -68 -26.5t-27 -66.5q0 -38 27 -65t66 -27q38 0 65 27t27 65z" />
    <glyph glyph-name="plusminus" unicode="&#xb1;" horiz-adv-x="559" 
d="M513 370l-17 -74h-154l-38 -169h-85l38 169h-154l17 74h155l38 169h85l-38 -169h153zM445 74l-17 -74h-393l17 74h393z" />
    <glyph glyph-name="twosuperior" unicode="&#xb2;" horiz-adv-x="254" 
d="M24 265l14 53l116 134q52 60 74 98.5t22 74.5q0 27 -27 27q-22 0 -33 -21q-8 -15 -24 -82h-60q17 81 32 109q29 54 93 54q41 0 64 -22t23 -61q0 -84 -100 -198l-91 -105h122l-15 -61h-210z" />
    <glyph glyph-name="threesuperior" unicode="&#xb3;" horiz-adv-x="254" 
d="M146 469l15 54h7q32 0 47.5 13t23.5 42q10 30 10 47q0 28 -26 28q-37 0 -50 -73h-60q11 59 26 84q27 48 89 48q42 0 65 -19.5t23 -56.5q0 -34 -17 -78q-19 -50 -68 -59q42 -12 42 -59q0 -46 -27 -108q-29 -72 -105 -72q-45 0 -70.5 20.5t-25.5 55.5q0 20 13 63h67
q-9 -45 -9 -47q0 -28 31 -28q24 0 39 36q17 44 17 73q0 36 -42 36h-15z" />
    <glyph glyph-name="acute" unicode="&#xb4;" horiz-adv-x="208" 
d="M202 671l-132 -107h-64l87 107h109z" />
    <glyph glyph-name="mu" unicode="&#xb5;" horiz-adv-x="385" 
d="M401 497l-89 -391q-11 -46 -11 -73q0 -16 13 -33h-96l5 46q-33 -50 -76 -50t-56 37l-43 -193h-81l150 657h80l-79 -344q-5 -25 -5 -40q0 -23 13.5 -37t36.5 -14q37 0 58 31q10 15 18 50l82 354h80z" />
    <glyph glyph-name="paragraph" unicode="&#xb6;" horiz-adv-x="632" 
d="M623 706l-16 -63h-34l-186 -810h-62l185 810h-117l-186 -810h-62l112 486q-87 52 -87 163q0 84 46 143q37 48 101 68q42 13 112 13h194z" />
    <glyph glyph-name="periodcentered" unicode="&#xb7;" horiz-adv-x="167" 
d="M160 347l-27 -118h-86l27 118h86z" />
    <glyph glyph-name="cedilla" unicode="&#xb8;" horiz-adv-x="208" 
d="M113 11h29l-45 -84q20 7 36 7q31 0 50.5 -16.5t19.5 -43.5q0 -37 -33 -63.5t-79 -26.5q-37 0 -86 27l17 23l4 -3q32 -16 53 -16q26 0 43.5 14.5t17.5 36.5q0 15 -9.5 25t-25.5 10q-14 0 -30 -10l-19 9z" />
    <glyph glyph-name="onesuperior" unicode="&#xb9;" horiz-adv-x="254" 
d="M275 706l-103 -441h-68l79 338h-72l12 50h4q42 0 61 11.5t28 41.5h59z" />
    <glyph glyph-name="ordmasculine" unicode="&#xba;" horiz-adv-x="265" 
d="M336 590l-33 -134q-13 -53 -43 -78t-82 -25q-50 0 -79 23t-29 62q0 16 7 48l32 133q13 54 43 78.5t83 24.5q49 0 78 -22.5t29 -60.5q0 -27 -6 -49zM235 459l34 135q6 24 6 38q0 40 -43 40q-21 0 -34 -12t-22 -48l-33 -131q-6 -23 -6 -37q0 -19 12 -29.5t32 -10.5
q41 0 54 55z" />
    <glyph glyph-name="guillemotright" unicode="&#xbb;" horiz-adv-x="354" 
d="M364 319l-20 -86l-175 -150l29 127l93 76l-54 90l24 107zM202 319l-20 -86l-175 -150l29 127l93 76l-53 90l24 107z" />
    <glyph glyph-name="onequarter" unicode="&#xbc;" horiz-adv-x="625" 
d="M124 0h-49l477 706h48zM280 706l-103 -441h-68l79 338h-72l12 50h4q42 0 61 11.5t28 41.5h59zM519 0h-66l23 94h-131l16 69l179 278h82l-67 -287h44l-15 -60h-43zM491 154l54 208l-121 -208h67z" />
    <glyph glyph-name="onehalf" unicode="&#xbd;" horiz-adv-x="625" 
d="M600 706l-476 -706h-49l477 706h48zM280 706l-103 -441h-68l79 338h-72l12 50h4q42 0 61 11.5t28 41.5h59zM337 0l14 53l116 134q52 60 74 98.5t22 74.5q0 27 -27 27q-22 0 -33 -21q-8 -15 -24 -82h-60q17 81 32 109q29 54 93 54q41 0 64 -22t23 -61q0 -84 -100 -198
l-91 -105h122l-15 -61h-210z" />
    <glyph glyph-name="threequarters" unicode="&#xbe;" horiz-adv-x="625" 
d="M136 0h-49l476 706h49zM526 0h-66l23 94h-131l16 69l179 278h82l-67 -287h44l-15 -60h-43zM498 154l54 208l-121 -208h67zM141 469l15 54h7q32 0 47.5 13t23.5 42q10 30 10 47q0 28 -26 28q-37 0 -50 -73h-60q11 59 26 84q27 48 89 48q42 0 65 -19.5t23 -56.5
q0 -34 -17 -78q-19 -50 -68 -59q42 -12 42 -59q0 -46 -27 -108q-29 -72 -105 -72q-45 0 -70.5 20.5t-25.5 55.5q0 20 13 63h67q-9 -45 -9 -47q0 -28 31 -28q24 0 39 36q17 44 17 73q0 36 -42 36h-15z" />
    <glyph glyph-name="questiondown" unicode="&#xbf;" horiz-adv-x="396" 
d="M281 516l-4 -20q-13 -68 -26 -99t-55 -81l-16 -19q-67 -81 -67 -175q0 -54 62 -54q24 0 36.5 5t25.5 28.5t24 72.5l14 65h78l-16 -74q-20 -95 -58 -135.5t-119 -40.5q-64 0 -99.5 31t-35.5 87q0 48 19.5 103.5t49.5 90.5l69 82q25 29 33.5 52t18.5 81h66zM215 588l27 118
h86l-27 -118h-86z" />
    <glyph glyph-name="Agrave" unicode="&#xc0;" horiz-adv-x="365" 
d="M360 706l-54 -706h-87l10 132h-131l-52 -132h-92l286 706h120zM275 605l-144 -391h105zM361 764h-65l-89 107h105z" />
    <glyph glyph-name="Aacute" unicode="&#xc1;" horiz-adv-x="365" 
d="M360 706l-54 -706h-87l10 132h-131l-52 -132h-92l286 706h120zM275 605l-144 -391h105zM442 871l-123 -107h-64l78 107h109z" />
    <glyph glyph-name="Acircumflex" unicode="&#xc2;" horiz-adv-x="365" 
d="M360 706l-54 -706h-87l10 132h-131l-52 -132h-92l286 706h120zM275 605l-144 -391h105zM434 763h-79l-41 63l-66 -63h-78l119 107h65z" />
    <glyph glyph-name="Atilde" unicode="&#xc3;" horiz-adv-x="365" 
d="M360 706l-54 -706h-87l10 132h-131l-52 -132h-92l286 706h120zM275 605l-144 -391h105zM410 851h38q-5 -41 -26 -66t-56 -25q-29 0 -69 20q-34 17 -46 17q-28 0 -36 -37h-40q5 42 30 68t62 26q20 0 56 -16l27 -13q18 -7 30 -7q23 0 30 33z" />
    <glyph glyph-name="Adieresis" unicode="&#xc4;" horiz-adv-x="365" 
d="M360 706l-54 -706h-87l10 132h-131l-52 -132h-92l286 706h120zM275 605l-144 -391h105zM461 871l-25 -107h-83l25 107h83zM288 871l-25 -107h-83l25 107h83z" />
    <glyph glyph-name="Aring" unicode="&#xc5;" horiz-adv-x="365" 
d="M360 706l-54 -706h-87l10 132h-131l-52 -132h-92l286 706h120zM275 605l-144 -391h105zM397 834q0 -33 -24.5 -57t-57.5 -24q-32 0 -55.5 23.5t-23.5 57.5q0 33 23.5 56.5t56.5 23.5t57 -23.5t24 -56.5zM353 834q0 16 -10.5 26.5t-26.5 10.5t-26 -10.5t-10 -27.5
q0 -15 10.5 -25.5t25.5 -10.5t26 10.5t11 26.5z" />
    <glyph glyph-name="AE" unicode="&#xc6;" horiz-adv-x="599" 
d="M662 706l-18 -79h-184l-46 -210h176l-19 -78h-175l-57 -260h220l-19 -79h-306l37 155h-155l-88 -155h-92l416 706h310zM377 618l-217 -387h128z" />
    <glyph glyph-name="Ccedilla" unicode="&#xc7;" horiz-adv-x="392" 
d="M430 485h-82l9 36q10 37 10 66q0 27 -16 42t-45 15q-53 0 -79 -43.5t-45 -128.5l-65 -295q-6 -27 -6 -45q0 -68 69 -68q45 0 65 25.5t40 106.5l13 52h82l-9 -36q-11 -43 -18 -65.5t-19 -52.5t-25 -45t-33 -30.5t-46 -22t-61 -6.5l-33 -63q20 7 36 7q31 0 50 -16.5
t19 -43.5q0 -37 -33 -63.5t-79 -26.5q-37 0 -85 27l16 23l5 -3q26 -16 52 -16q27 0 44 14t17 37q0 15 -9.5 25t-25.5 10q-14 0 -30 -10l-19 9l47 91q-62 11 -90.5 42t-28.5 89q0 32 9 72l66 284q30 132 80 185.5t140 53.5q63 0 99 -28.5t36 -78.5q0 -37 -11 -79z" />
    <glyph glyph-name="Egrave" unicode="&#xc8;" 
d="M455 706l-18 -79h-206l-48 -210h192l-19 -80h-192l-59 -258h225l-19 -79h-310l163 706h291zM357 764h-65l-89 107h105z" />
    <glyph glyph-name="Eacute" unicode="&#xc9;" 
d="M455 706l-18 -79h-206l-48 -210h192l-19 -80h-192l-59 -258h225l-19 -79h-310l163 706h291zM455 871l-123 -107h-64l78 107h109z" />
    <glyph glyph-name="Ecircumflex" unicode="&#xca;" 
d="M455 706l-18 -79h-206l-48 -210h192l-19 -80h-192l-59 -258h225l-19 -79h-310l163 706h291zM446 763h-79l-41 63l-66 -63h-78l119 107h65z" />
    <glyph glyph-name="Edieresis" unicode="&#xcb;" 
d="M455 706l-18 -79h-206l-48 -210h192l-19 -80h-192l-59 -258h225l-19 -79h-310l163 706h291zM474 871l-25 -107h-83l25 107h83zM301 871l-25 -107h-83l25 107h83z" />
    <glyph glyph-name="Igrave" unicode="&#xcc;" horiz-adv-x="188" 
d="M249 706l-162 -706h-86l163 706h85zM269 764h-65l-89 107h105z" />
    <glyph glyph-name="Iacute" unicode="&#xcd;" horiz-adv-x="188" 
d="M249 706l-162 -706h-86l163 706h85zM353 871l-123 -107h-64l78 107h109z" />
    <glyph glyph-name="Icircumflex" unicode="&#xce;" horiz-adv-x="188" 
d="M249 706l-162 -706h-86l163 706h85zM349 763h-79l-41 63l-66 -63h-78l119 107h65z" />
    <glyph glyph-name="Idieresis" unicode="&#xcf;" horiz-adv-x="188" 
d="M249 706l-162 -706h-86l163 706h85zM370 871l-25 -107h-83l25 107h83zM197 871l-25 -107h-83l25 107h83z" />
    <glyph glyph-name="Eth" unicode="&#xd0;" horiz-adv-x="430" 
d="M164 706h133q83 0 119 -21q55 -32 55 -106q0 -43 -18 -118l-51 -219q-19 -78 -34 -121q-22 -54 -53 -79q-32 -27 -80 -36q-35 -6 -100 -6h-134l83 356h-63l14 63h63zM233 625l-47 -206h107l-15 -63h-107l-64 -278h61q77 0 104 34q22 27 44 125l51 227q14 60 14 87
q0 41 -22 57.5t-77 16.5h-49z" />
    <glyph glyph-name="Ntilde" unicode="&#xd1;" horiz-adv-x="440" 
d="M502 706l-164 -706h-120q2 596 2 639l-136 -639h-83l164 706h118l2 -640l135 640h82zM454 851h38q-5 -41 -26 -66t-56 -25q-29 0 -69 20q-34 17 -46 17q-28 0 -36 -37h-40q5 42 30 68t62 26q20 0 56 -16l27 -13q18 -7 30 -7q23 0 30 33z" />
    <glyph glyph-name="Ograve" unicode="&#xd2;" horiz-adv-x="422" 
d="M451 505l-81 -346q-21 -90 -63 -128.5t-121 -38.5q-78 0 -120.5 33t-42.5 92q0 31 12 82l81 346q20 88 66.5 129t123.5 41q73 0 114.5 -34t41.5 -94q0 -34 -11 -82zM281 165l82 344q11 47 11 66q0 66 -73 66q-41 0 -62.5 -22t-36.5 -86l-81 -348q-8 -34 -8 -56
q0 -65 74 -65q38 0 59.5 23.5t34.5 77.5zM380 764h-65l-89 107h105z" />
    <glyph glyph-name="Oacute" unicode="&#xd3;" horiz-adv-x="422" 
d="M451 505l-81 -346q-21 -90 -63 -128.5t-121 -38.5q-78 0 -120.5 33t-42.5 92q0 31 12 82l81 346q20 88 66.5 129t123.5 41q73 0 114.5 -34t41.5 -94q0 -34 -11 -82zM281 165l82 344q11 47 11 66q0 66 -73 66q-41 0 -62.5 -22t-36.5 -86l-81 -348q-8 -34 -8 -56
q0 -65 74 -65q38 0 59.5 23.5t34.5 77.5zM450 871l-123 -107h-64l78 107h109z" />
    <glyph glyph-name="Ocircumflex" unicode="&#xd4;" horiz-adv-x="422" 
d="M451 505l-81 -346q-21 -90 -63 -128.5t-121 -38.5q-78 0 -120.5 33t-42.5 92q0 31 12 82l81 346q20 88 66.5 129t123.5 41q73 0 114.5 -34t41.5 -94q0 -34 -11 -82zM281 165l82 344q11 47 11 66q0 66 -73 66q-41 0 -62.5 -22t-36.5 -86l-81 -348q-8 -34 -8 -56
q0 -65 74 -65q38 0 59.5 23.5t34.5 77.5zM456 763h-79l-41 63l-66 -63h-78l119 107h65z" />
    <glyph glyph-name="Otilde" unicode="&#xd5;" horiz-adv-x="422" 
d="M451 505l-81 -346q-21 -90 -63 -128.5t-121 -38.5q-78 0 -120.5 33t-42.5 92q0 31 12 82l81 346q20 88 66.5 129t123.5 41q73 0 114.5 -34t41.5 -94q0 -34 -11 -82zM281 165l82 344q11 47 11 66q0 66 -73 66q-41 0 -62.5 -22t-36.5 -86l-81 -348q-8 -34 -8 -56
q0 -65 74 -65q38 0 59.5 23.5t34.5 77.5zM429 851h38q-5 -41 -26 -66t-56 -25q-29 0 -69 20q-34 17 -46 17q-28 0 -36 -37h-40q5 42 30 68t62 26q20 0 56 -16l27 -13q18 -7 30 -7q23 0 30 33z" />
    <glyph glyph-name="Odieresis" unicode="&#xd6;" horiz-adv-x="422" 
d="M451 505l-81 -346q-21 -90 -63 -128.5t-121 -38.5q-78 0 -120.5 33t-42.5 92q0 31 12 82l81 346q20 88 66.5 129t123.5 41q73 0 114.5 -34t41.5 -94q0 -34 -11 -82zM281 165l82 344q11 47 11 66q0 66 -73 66q-41 0 -62.5 -22t-36.5 -86l-81 -348q-8 -34 -8 -56
q0 -65 74 -65q38 0 59.5 23.5t34.5 77.5zM482 871l-25 -107h-83l25 107h83zM309 871l-25 -107h-83l25 107h83z" />
    <glyph glyph-name="multiply" unicode="&#xd7;" horiz-adv-x="558" 
d="M489 411l-137 -119l80 -134l-66 -52l-80 133l-136 -120l-42 61l138 121l-80 132l66 52l79 -131l137 118z" />
    <glyph glyph-name="Oslash" unicode="&#xd8;" horiz-adv-x="422" 
d="M503 680l-45 -61q4 -19 4 -38q0 -32 -11 -76l-81 -346q-21 -89 -62.5 -128t-121.5 -39q-111 0 -145 60l-37 -51l-31 24l51 70q-1 9 -1 22q0 31 12 82l81 346q20 88 66.5 129t123.5 41q89 0 134 -54l33 43zM373 570v10q0 29 -19 45t-53 16q-42 0 -63 -21.5t-37 -86.5
l-69 -288zM361 489l-245 -332q-3 -19 -3 -27q0 -31 18.5 -48.5t51.5 -17.5q40 0 63 23.5t37 78.5z" />
    <glyph glyph-name="Ugrave" unicode="&#xd9;" horiz-adv-x="432" 
d="M496 706l-118 -510q-15 -66 -30.5 -102t-38.5 -58q-47 -47 -129 -47q-73 0 -112.5 31t-39.5 88q0 26 15 92l117 506h85l-126 -546q-4 -15 -4 -33q0 -63 72 -63q42 0 62 22q24 26 45 116l116 504h86zM391 764h-65l-89 107h105z" />
    <glyph glyph-name="Uacute" unicode="&#xda;" horiz-adv-x="432" 
d="M496 706l-118 -510q-15 -66 -30.5 -102t-38.5 -58q-47 -47 -129 -47q-73 0 -112.5 31t-39.5 88q0 26 15 92l117 506h85l-126 -546q-4 -15 -4 -33q0 -63 72 -63q42 0 62 22q24 26 45 116l116 504h86zM465 871l-123 -107h-64l78 107h109z" />
    <glyph glyph-name="Ucircumflex" unicode="&#xdb;" horiz-adv-x="432" 
d="M496 706l-118 -510q-15 -66 -30.5 -102t-38.5 -58q-47 -47 -129 -47q-73 0 -112.5 31t-39.5 88q0 26 15 92l117 506h85l-126 -546q-4 -15 -4 -33q0 -63 72 -63q42 0 62 22q24 26 45 116l116 504h86zM465 763h-79l-41 63l-66 -63h-78l119 107h65z" />
    <glyph glyph-name="Udieresis" unicode="&#xdc;" horiz-adv-x="432" 
d="M496 706l-118 -510q-15 -66 -30.5 -102t-38.5 -58q-47 -47 -129 -47q-73 0 -112.5 31t-39.5 88q0 26 15 92l117 506h85l-126 -546q-4 -15 -4 -33q0 -63 72 -63q42 0 62 22q24 26 45 116l116 504h86zM491 871l-25 -107h-83l25 107h83zM318 871l-25 -107h-83l25 107h83z
" />
    <glyph glyph-name="Yacute" unicode="&#xdd;" horiz-adv-x="388" 
d="M507 706l-262 -433l-62 -273h-87l63 275l-48 431h87l25 -344l187 344h97zM449 871l-123 -107h-64l78 107h109z" />
    <glyph glyph-name="Thorn" unicode="&#xde;" horiz-adv-x="402" 
d="M164 706h85l-30 -135h28q99 0 138 -27.5t39 -99.5q0 -54 -14 -112t-36 -95q-49 -81 -183 -81h-69l-36 -156h-85zM200 492l-60 -259h47q53 0 78.5 10t39.5 35q10 16 21 62t11 74q0 45 -20 61.5t-75 16.5h-42z" />
    <glyph glyph-name="germandbls" unicode="&#xdf;" horiz-adv-x="377" 
d="M78 0h-82l130 566q18 79 52.5 114t100.5 35t101.5 -29.5t35.5 -84.5q0 -70 -30 -113.5t-81 -48.5q34 -9 53.5 -34.5t19.5 -61.5q0 -26 -11 -81q-22 -119 -51 -183q-20 -46 -51.5 -66t-83.5 -20q-29 0 -58 8l16 67q24 -7 39 -7q44 0 63 43q15 32 37 130q18 81 18 110
q0 38 -20 51q-19 12 -55 12h-5l16 70q13 -2 28 -2q43 0 58 31q19 40 19 83q0 59 -57 59q-35 0 -49 -20t-24 -64z" />
    <glyph glyph-name="agrave" unicode="&#xe0;" horiz-adv-x="347" 
d="M142 334h-73l1 10q10 92 46 127t113 35q123 0 123 -97q0 -20 -10 -64l-56 -239q-11 -51 -11 -73q0 -16 13 -33h-94l6 48q-41 -58 -100 -58q-46 0 -73.5 29.5t-27.5 78.5q0 63 31 103.5t96 71.5l37 18q63 31 100 62l5 20q4 18 4 28q0 42 -52 42q-37 0 -53 -20.5t-24 -80.5
zM222 170l24 105q-19 -15 -54 -35l-27 -15q-45 -25 -65 -49.5t-20 -66.5q0 -27 12.5 -42.5t34.5 -15.5q68 0 95 119zM291 564h-64l-92 107h105z" />
    <glyph glyph-name="aacute" unicode="&#xe1;" horiz-adv-x="347" 
d="M142 334h-73l1 10q10 92 46 127t113 35q123 0 123 -97q0 -20 -10 -64l-56 -239q-11 -51 -11 -73q0 -16 13 -33h-94l6 48q-41 -58 -100 -58q-46 0 -73.5 29.5t-27.5 78.5q0 63 31 103.5t96 71.5l37 18q63 31 100 62l5 20q4 18 4 28q0 42 -52 42q-37 0 -53 -20.5t-24 -80.5
zM222 170l24 105q-19 -15 -54 -35l-27 -15q-45 -25 -65 -49.5t-20 -66.5q0 -27 12.5 -42.5t34.5 -15.5q68 0 95 119zM393 671l-132 -107h-64l87 107h109z" />
    <glyph glyph-name="acircumflex" unicode="&#xe2;" horiz-adv-x="347" 
d="M142 334h-73l1 10q10 92 46 127t113 35q123 0 123 -97q0 -20 -10 -64l-56 -239q-11 -51 -11 -73q0 -16 13 -33h-94l6 48q-41 -58 -100 -58q-46 0 -73.5 29.5t-27.5 78.5q0 63 31 103.5t96 71.5l37 18q63 31 100 62l5 20q4 18 4 28q0 42 -52 42q-37 0 -53 -20.5t-24 -80.5
zM222 170l24 105q-19 -15 -54 -35l-27 -15q-45 -25 -65 -49.5t-20 -66.5q0 -27 12.5 -42.5t34.5 -15.5q68 0 95 119zM371 563h-77l-36 63l-66 -63h-79l123 110h65z" />
    <glyph glyph-name="atilde" unicode="&#xe3;" horiz-adv-x="347" 
d="M142 334h-73l1 10q10 92 46 127t113 35q123 0 123 -97q0 -20 -10 -64l-56 -239q-11 -51 -11 -73q0 -16 13 -33h-94l6 48q-41 -58 -100 -58q-46 0 -73.5 29.5t-27.5 78.5q0 63 31 103.5t96 71.5l37 18q63 31 100 62l5 20q4 18 4 28q0 42 -52 42q-37 0 -53 -20.5t-24 -80.5
zM222 170l24 105q-19 -15 -54 -35l-27 -15q-45 -25 -65 -49.5t-20 -66.5q0 -27 12.5 -42.5t34.5 -15.5q68 0 95 119zM339 658h37q-5 -41 -25 -65.5t-54 -24.5q-26 0 -65 19q-35 17 -44 17q-27 0 -35 -36h-37q5 42 28.5 67.5t58.5 25.5q20 0 53 -16l26 -13q16 -7 28 -7
q22 0 29 33z" />
    <glyph glyph-name="adieresis" unicode="&#xe4;" horiz-adv-x="347" 
d="M142 334h-73l1 10q10 92 46 127t113 35q123 0 123 -97q0 -20 -10 -64l-56 -239q-11 -51 -11 -73q0 -16 13 -33h-94l6 48q-41 -58 -100 -58q-46 0 -73.5 29.5t-27.5 78.5q0 63 31 103.5t96 71.5l37 18q63 31 100 62l5 20q4 18 4 28q0 42 -52 42q-37 0 -53 -20.5t-24 -80.5
zM222 170l24 105q-19 -15 -54 -35l-27 -15q-45 -25 -65 -49.5t-20 -66.5q0 -27 12.5 -42.5t34.5 -15.5q68 0 95 119zM371 666l-24 -103h-77l24 103h77zM221 666l-23 -103h-79l23 103h79z" />
    <glyph glyph-name="aring" unicode="&#xe5;" horiz-adv-x="347" 
d="M142 334h-73l1 10q10 92 46 127t113 35q123 0 123 -97q0 -20 -10 -64l-56 -239q-11 -51 -11 -73q0 -16 13 -33h-94l6 48q-41 -58 -100 -58q-46 0 -73.5 29.5t-27.5 78.5q0 63 31 103.5t96 71.5l37 18q63 31 100 62l5 20q4 18 4 28q0 42 -52 42q-37 0 -53 -20.5t-24 -80.5
zM222 170l24 105q-19 -15 -54 -35l-27 -15q-45 -25 -65 -49.5t-20 -66.5q0 -27 12.5 -42.5t34.5 -15.5q68 0 95 119zM334 628q0 -33 -24.5 -57t-57.5 -24q-32 0 -56 23.5t-24 57.5q0 33 23.5 56.5t56.5 23.5t57.5 -23.5t24.5 -56.5zM290 628q0 16 -10.5 26.5t-26.5 10.5
t-26.5 -11t-10.5 -27q0 -15 10.5 -25.5t25.5 -10.5t26.5 11t11.5 26z" />
    <glyph glyph-name="ae" unicode="&#xe6;" horiz-adv-x="537" 
d="M513 234h-198l-15 -65q-9 -38 -9 -58q0 -54 52 -54q29 0 45.5 23t26.5 75h81q-17 -90 -53.5 -127t-108.5 -37q-81 0 -117 57q-43 -58 -114 -58q-48 0 -76 29t-28 79q0 71 41 117q27 30 86 58l37 18q63 31 100 62l5 20q4 18 4 28q0 42 -52 42q-37 0 -53 -20.5t-24 -80.5
l-1 -8h-73l1 10q9 82 45.5 122t111.5 40q60 0 97 -34q40 34 97 34q58 0 90 -27.5t32 -76.5q0 -34 -8 -67zM329 297h119l5 21q13 57 13 77q0 47 -49 47q-52 0 -67 -60zM248 277q-30 -23 -83 -52q-50 -27 -67.5 -53t-17.5 -63q0 -58 49 -58q69 0 97 128z" />
    <glyph glyph-name="ccedilla" unicode="&#xe7;" horiz-adv-x="346" 
d="M341 319h-75l4 18q9 37 9 60q0 49 -48 49q-32 0 -49 -20.5t-32 -84.5l-34 -147q-16 -70 -16 -93q0 -22 13.5 -34.5t36.5 -12.5q37 0 55.5 31t30.5 101h78q-19 -104 -54.5 -147t-106.5 -48l-34 -64q20 7 36 7q31 0 50 -16.5t19 -43.5q0 -37 -33 -63.5t-79 -26.5
q-37 0 -85 27l16 23l5 -3q26 -16 53 -16q26 0 43 14.5t17 36.5q0 15 -9.5 25t-25.5 10q-14 0 -30 -10l-19 9l48 91q-49 4 -78 29.5t-29 70.5q0 27 17 102l34 148q21 92 59 128.5t104 36.5q59 0 90.5 -25.5t31.5 -74.5q0 -13 -10 -70z" />
    <glyph glyph-name="egrave" unicode="&#xe8;" horiz-adv-x="344" 
d="M321 233h-199l-15 -65q-9 -43 -9 -58q0 -53 52 -53q30 0 46.5 22t26.5 75h81q-17 -77 -42 -112q-37 -51 -120 -51q-125 0 -125 107q0 26 11 72l42 182q20 86 51 115q40 38 110 38q54 0 87 -27.5t33 -73.5q0 -37 -19 -121zM137 297h120l11 54q6 29 6 46q0 48 -49 48
q-36 0 -54 -29q-11 -18 -29 -98zM298 564h-64l-92 107h105z" />
    <glyph glyph-name="eacute" unicode="&#xe9;" horiz-adv-x="344" 
d="M321 233h-199l-15 -65q-9 -43 -9 -58q0 -53 52 -53q30 0 46.5 22t26.5 75h81q-17 -77 -42 -112q-37 -51 -120 -51q-125 0 -125 107q0 26 11 72l42 182q20 86 51 115q40 38 110 38q54 0 87 -27.5t33 -73.5q0 -37 -19 -121zM137 297h120l11 54q6 29 6 46q0 48 -49 48
q-36 0 -54 -29q-11 -18 -29 -98zM385 671l-132 -107h-64l87 107h109z" />
    <glyph glyph-name="ecircumflex" unicode="&#xea;" horiz-adv-x="344" 
d="M321 233h-199l-15 -65q-9 -43 -9 -58q0 -53 52 -53q30 0 46.5 22t26.5 75h81q-17 -77 -42 -112q-37 -51 -120 -51q-125 0 -125 107q0 26 11 72l42 182q20 86 51 115q40 38 110 38q54 0 87 -27.5t33 -73.5q0 -37 -19 -121zM137 297h120l11 54q6 29 6 46q0 48 -49 48
q-36 0 -54 -29q-11 -18 -29 -98zM363 563h-77l-36 63l-66 -63h-79l123 110h65z" />
    <glyph glyph-name="edieresis" unicode="&#xeb;" horiz-adv-x="344" 
d="M321 233h-199l-15 -65q-9 -43 -9 -58q0 -53 52 -53q30 0 46.5 22t26.5 75h81q-17 -77 -42 -112q-37 -51 -120 -51q-125 0 -125 107q0 26 11 72l42 182q20 86 51 115q40 38 110 38q54 0 87 -27.5t33 -73.5q0 -37 -19 -121zM137 297h120l11 54q6 29 6 46q0 48 -49 48
q-36 0 -54 -29q-11 -18 -29 -98zM379 666l-24 -103h-77l24 103h77zM229 666l-23 -103h-79l23 103h79z" />
    <glyph glyph-name="igrave" unicode="&#xec;" horiz-adv-x="165" 
d="M191 496l-115 -496h-80l114 496h81zM217 564h-64l-92 107h105z" />
    <glyph glyph-name="iacute" unicode="&#xed;" horiz-adv-x="165" 
d="M191 496l-115 -496h-80l114 496h81zM300 671l-132 -107h-64l87 107h109z" />
    <glyph glyph-name="icircumflex" unicode="&#xee;" horiz-adv-x="165" 
d="M191 496l-115 -496h-80l114 496h81zM291 563h-77l-36 63l-66 -63h-79l123 110h65z" />
    <glyph glyph-name="idieresis" unicode="&#xef;" horiz-adv-x="165" 
d="M191 496l-115 -496h-80l114 496h81zM298 666l-24 -103h-77l24 103h77zM148 666l-23 -103h-79l23 103h79z" />
    <glyph glyph-name="eth" unicode="&#xf0;" horiz-adv-x="354" 
d="M395 611l-57 -12q25 -63 25 -142q0 -62 -19 -143l-42 -183q-18 -77 -54.5 -108.5t-102.5 -31.5q-61 0 -94.5 27.5t-33.5 77.5q0 29 10 73l44 192q17 71 50 105t86 34q49 0 80 -30q-4 73 -20 115l-111 -23l-12 47l99 21q-22 34 -56 61l68 22q33 -29 58 -67l70 14zM222 134
l48 215q6 27 6 42q0 50 -52 50q-32 0 -47.5 -19.5t-24.5 -64.5l-46 -212q-7 -33 -7 -46q0 -46 53 -46q29 0 44.5 18t25.5 63z" />
    <glyph glyph-name="ntilde" unicode="&#xf1;" 
d="M110 497h78l-8 -40q39 49 96 49q42 0 68.5 -24.5t26.5 -63.5q0 -26 -10 -69l-81 -349h-80l80 350q6 24 6 40q0 24 -13.5 38t-36.5 14q-30 0 -48.5 -19t-28.5 -62l-83 -361h-80zM355 658h37q-5 -41 -25 -65.5t-54 -24.5q-26 0 -65 19q-35 17 -44 17q-27 0 -35 -36h-37
q5 42 28.5 67.5t58.5 25.5q20 0 53 -16l26 -13q16 -7 28 -7q22 0 29 33z" />
    <glyph glyph-name="ograve" unicode="&#xf2;" horiz-adv-x="354" 
d="M351 343l-49 -212q-18 -77 -54.5 -108.5t-102.5 -31.5q-62 0 -95 27t-33 78q0 29 10 73l44 192q17 76 54.5 110t104.5 34q129 0 129 -109q0 -15 -8 -53zM222 134l48 215q6 27 6 42q0 50 -52 50q-29 0 -45 -17t-27 -67l-46 -212q-7 -33 -7 -46q0 -46 53 -46q29 0 44.5 18
t25.5 63zM295 564h-64l-92 107h105z" />
    <glyph glyph-name="oacute" unicode="&#xf3;" horiz-adv-x="354" 
d="M351 343l-49 -212q-18 -77 -54.5 -108.5t-102.5 -31.5q-62 0 -95 27t-33 78q0 29 10 73l44 192q17 76 54.5 110t104.5 34q129 0 129 -109q0 -15 -8 -53zM222 134l48 215q6 27 6 42q0 50 -52 50q-29 0 -45 -17t-27 -67l-46 -212q-7 -33 -7 -46q0 -46 53 -46q29 0 44.5 18
t25.5 63zM391 671l-132 -107h-64l87 107h109z" />
    <glyph glyph-name="ocircumflex" unicode="&#xf4;" horiz-adv-x="354" 
d="M351 343l-49 -212q-18 -77 -54.5 -108.5t-102.5 -31.5q-62 0 -95 27t-33 78q0 29 10 73l44 192q17 76 54.5 110t104.5 34q129 0 129 -109q0 -15 -8 -53zM222 134l48 215q6 27 6 42q0 50 -52 50q-29 0 -45 -17t-27 -67l-46 -212q-7 -33 -7 -46q0 -46 53 -46q29 0 44.5 18
t25.5 63zM378 563h-77l-36 63l-66 -63h-79l123 110h65z" />
    <glyph glyph-name="otilde" unicode="&#xf5;" horiz-adv-x="354" 
d="M351 343l-49 -212q-18 -77 -54.5 -108.5t-102.5 -31.5q-62 0 -95 27t-33 78q0 29 10 73l44 192q17 76 54.5 110t104.5 34q129 0 129 -109q0 -15 -8 -53zM222 134l48 215q6 27 6 42q0 50 -52 50q-29 0 -45 -17t-27 -67l-46 -212q-7 -33 -7 -46q0 -46 53 -46q29 0 44.5 18
t25.5 63zM341 658h37q-5 -41 -25 -65.5t-54 -24.5q-26 0 -65 19q-35 17 -44 17q-27 0 -35 -36h-37q5 42 28.5 67.5t58.5 25.5q20 0 53 -16l26 -13q16 -7 28 -7q22 0 29 33z" />
    <glyph glyph-name="odieresis" unicode="&#xf6;" horiz-adv-x="354" 
d="M351 343l-49 -212q-18 -77 -54.5 -108.5t-102.5 -31.5q-62 0 -95 27t-33 78q0 29 10 73l44 192q17 76 54.5 110t104.5 34q129 0 129 -109q0 -15 -8 -53zM222 134l48 215q6 27 6 42q0 50 -52 50q-29 0 -45 -17t-27 -67l-46 -212q-7 -33 -7 -46q0 -46 53 -46q29 0 44.5 18
t25.5 63zM389 666l-24 -103h-77l24 103h77zM239 666l-23 -103h-79l23 103h79z" />
    <glyph glyph-name="divide" unicode="&#xf7;" horiz-adv-x="559" 
d="M391 502l-25 -109h-88l25 109h88zM508 334l-16 -73h-401l17 73h400zM322 201l-25 -109h-88l25 109h88z" />
    <glyph glyph-name="oslash" unicode="&#xf8;" horiz-adv-x="353" 
d="M390 465l-35 -41q3 -15 3 -27q0 -27 -7 -54l-50 -212q-18 -77 -54 -108.5t-102 -31.5q-79 0 -113 46l-28 -32l-27 24l41 49q-2 18 -2 21q0 29 10 70l44 192q17 76 54.5 109.5t105.5 33.5q74 0 110 -43l26 31zM278 387v4q0 51 -54 51q-28 0 -45.5 -18t-28.5 -66l-36 -167z
M264 315l-166 -198q-2 -10 -2 -20q0 -45 54 -45q30 0 46 18t26 64z" />
    <glyph glyph-name="ugrave" unicode="&#xf9;" 
d="M392 497l-114 -497h-78l8 39q-40 -49 -96 -49q-42 0 -69 24.5t-27 64.5q0 24 10 68l82 350h80l-81 -351q-5 -20 -5 -40q0 -24 13.5 -38t36.5 -14q30 0 48 18.5t28 62.5l84 362h80zM309 564h-64l-92 107h105z" />
    <glyph glyph-name="uacute" unicode="&#xfa;" 
d="M392 497l-114 -497h-78l8 39q-40 -49 -96 -49q-42 0 -69 24.5t-27 64.5q0 24 10 68l82 350h80l-81 -351q-5 -20 -5 -40q0 -24 13.5 -38t36.5 -14q30 0 48 18.5t28 62.5l84 362h80zM391 671l-132 -107h-64l87 107h109z" />
    <glyph glyph-name="ucircumflex" unicode="&#xfb;" 
d="M392 497l-114 -497h-78l8 39q-40 -49 -96 -49q-42 0 -69 24.5t-27 64.5q0 24 10 68l82 350h80l-81 -351q-5 -20 -5 -40q0 -24 13.5 -38t36.5 -14q30 0 48 18.5t28 62.5l84 362h80zM384 563h-77l-36 63l-66 -63h-79l123 110h65z" />
    <glyph glyph-name="udieresis" unicode="&#xfc;" 
d="M392 497l-114 -497h-78l8 39q-40 -49 -96 -49q-42 0 -69 24.5t-27 64.5q0 24 10 68l82 350h80l-81 -351q-5 -20 -5 -40q0 -24 13.5 -38t36.5 -14q30 0 48 18.5t28 62.5l84 362h80zM397 666l-24 -103h-77l24 103h77zM247 666l-23 -103h-79l23 103h79z" />
    <glyph glyph-name="yacute" unicode="&#xfd;" horiz-adv-x="315" 
d="M295 497h88l-224 -517q-38 -89 -74 -116q-37 -26 -91 -26q-20 0 -59 8l16 68q29 -8 45 -8q42 0 62 32q13 23 13 83q-2 439 -2 476h83l-14 -409zM376 671l-132 -107h-64l87 107h109z" />
    <glyph glyph-name="thorn" unicode="&#xfe;" horiz-adv-x="367" 
d="M158 706h81l-59 -249q41 47 96 47q43 0 69.5 -28t26.5 -74q0 -25 -18 -101l-31 -130q-23 -96 -49 -132q-38 -52 -101 -52q-59 0 -88 52l-45 -198h-81zM148 317l-31 -132q-11 -46 -11 -70q0 -30 15 -46.5t41 -16.5q39 0 56 36q11 21 27 91l29 120q16 69 16 86q0 25 -13 39
t-36 14q-65 0 -93 -121z" />
    <glyph glyph-name="ydieresis" unicode="&#xff;" horiz-adv-x="315" 
d="M295 497h88l-224 -517q-38 -89 -74 -116q-37 -26 -91 -26q-20 0 -59 8l16 68q29 -8 45 -8q42 0 62 32q13 23 13 83q-2 439 -2 476h83l-14 -409zM370 666l-24 -103h-77l24 103h77zM220 666l-23 -103h-79l23 103h79z" />
    <glyph glyph-name="Amacron" unicode="&#x100;" horiz-adv-x="365" 
d="M360 706l-54 -706h-87l10 132h-131l-52 -132h-92l286 706h120zM275 605l-144 -391h105zM417 773h-224l12 64h224z" />
    <glyph glyph-name="amacron" unicode="&#x101;" horiz-adv-x="347" 
d="M142 334h-73l1 10q10 92 46 127t113 35q123 0 123 -97q0 -20 -10 -64l-56 -239q-11 -51 -11 -73q0 -16 13 -33h-94l6 48q-41 -58 -100 -58q-46 0 -73.5 29.5t-27.5 78.5q0 63 31 103.5t96 71.5l37 18q63 31 100 62l5 20q4 18 4 28q0 42 -52 42q-37 0 -53 -20.5t-24 -80.5
zM222 170l24 105q-19 -15 -54 -35l-27 -15q-45 -25 -65 -49.5t-20 -66.5q0 -27 12.5 -42.5t34.5 -15.5q68 0 95 119zM357 575h-217l12 64h217z" />
    <glyph glyph-name="Abreve" unicode="&#x102;" horiz-adv-x="365" 
d="M360 706l-54 -706h-87l10 132h-131l-52 -132h-92l286 706h120zM275 605l-144 -391h105zM411 888l29 -19q-43 -111 -124 -111q-43 0 -71 33t-33 92l34 9q4 -36 23.5 -55.5t50.5 -19.5q59 0 91 71z" />
    <glyph glyph-name="abreve" unicode="&#x103;" horiz-adv-x="347" 
d="M142 334h-73l1 10q10 92 46 127t113 35q123 0 123 -97q0 -20 -10 -64l-56 -239q-11 -51 -11 -73q0 -16 13 -33h-94l6 48q-41 -58 -100 -58q-46 0 -73.5 29.5t-27.5 78.5q0 63 31 103.5t96 71.5l37 18q63 31 100 62l5 20q4 18 4 28q0 42 -52 42q-37 0 -53 -20.5t-24 -80.5
zM222 170l24 105q-19 -15 -54 -35l-27 -15q-45 -25 -65 -49.5t-20 -66.5q0 -27 12.5 -42.5t34.5 -15.5q68 0 95 119zM349 693l29 -20q-44 -116 -121 -116q-42 0 -68 34t-33 96l34 10q4 -38 22.5 -59.5t48.5 -21.5q55 0 88 77z" />
    <glyph glyph-name="Aogonek" unicode="&#x104;" horiz-adv-x="365" 
d="M306 0h-10q-21 -9 -45.5 -36t-24.5 -44q0 -20 38 -20h17l-11 -61h-37q-83 0 -83 46q0 43 69 116l10 131h-131l-52 -132h-92l286 706h120zM275 605l-144 -391h105z" />
    <glyph glyph-name="aogonek" unicode="&#x105;" horiz-adv-x="347" 
d="M142 334h-73l1 10q10 92 46 127t113 35q123 0 123 -97q0 -20 -10 -64l-56 -239q-11 -51 -11 -73q0 -16 13 -33h-20q-23 -9 -46.5 -36.5t-23.5 -43.5q0 -20 38 -20h17l-11 -61h-37q-83 0 -83 46t73 121l5 42q-41 -58 -100 -58q-46 0 -73.5 29.5t-27.5 78.5q0 63 31 103.5
t96 71.5l37 18q63 31 100 62l5 20q4 18 4 28q0 42 -52 42q-37 0 -53 -20.5t-24 -80.5zM222 170l24 105q-19 -15 -54 -35l-27 -15q-45 -25 -65 -49.5t-20 -66.5q0 -27 12.5 -42.5t34.5 -15.5q68 0 95 119z" />
    <glyph glyph-name="Cacute" unicode="&#x106;" horiz-adv-x="392" 
d="M430 485h-82l9 36q10 37 10 66q0 27 -16 42t-45 15q-53 0 -79 -43.5t-45 -128.5l-65 -295q-6 -27 -6 -45q0 -68 69 -68q45 0 65 26t40 106l13 52h82l-9 -36q-15 -62 -28.5 -97.5t-36 -67t-56.5 -44.5t-84 -13q-68 0 -106 35t-38 97q0 32 9 72l66 284q30 132 80 185.5
t140 53.5q63 0 99 -28.5t36 -78.5q0 -37 -11 -79zM462 871l-123 -107h-64l78 107h109z" />
    <glyph glyph-name="cacute" unicode="&#x107;" horiz-adv-x="346" 
d="M341 319h-75l4 18q9 37 9 60q0 49 -48 49q-33 0 -49.5 -20t-31.5 -85l-34 -147q-16 -71 -16 -93t13.5 -34.5t36.5 -12.5q37 0 55.5 31t30.5 101h78q-20 -110 -59 -153t-113 -43q-57 0 -90.5 27.5t-33.5 73.5q0 27 17 102l34 148q21 93 58.5 129t104.5 36q59 0 90.5 -25.5
t31.5 -74.5q0 -13 -10 -70zM395 671l-132 -107h-64l87 107h109z" />
    <glyph glyph-name="Ccircumflex" unicode="&#x108;" horiz-adv-x="392" 
d="M430 485h-82l9 36q10 37 10 66q0 27 -16 42t-45 15q-53 0 -79 -43.5t-45 -128.5l-65 -295q-6 -27 -6 -45q0 -68 69 -68q45 0 65 26t40 106l13 52h82l-9 -36q-15 -62 -28.5 -97.5t-36 -67t-56.5 -44.5t-84 -13q-68 0 -106 35t-38 97q0 32 9 72l66 284q30 132 80 185.5
t140 53.5q63 0 99 -28.5t36 -78.5q0 -37 -11 -79zM466 763h-79l-41 63l-66 -63h-78l119 107h65z" />
    <glyph glyph-name="ccircumflex" unicode="&#x109;" horiz-adv-x="346" 
d="M341 319h-75l4 18q9 37 9 60q0 49 -48 49q-33 0 -49.5 -20t-31.5 -85l-34 -147q-16 -71 -16 -93t13.5 -34.5t36.5 -12.5q37 0 55.5 31t30.5 101h78q-20 -110 -59 -153t-113 -43q-57 0 -90.5 27.5t-33.5 73.5q0 27 17 102l34 148q21 93 58.5 129t104.5 36q59 0 90.5 -25.5
t31.5 -74.5q0 -13 -10 -70zM376 563h-77l-36 63l-66 -63h-79l123 110h65z" />
    <glyph glyph-name="Cdotaccent" unicode="&#x10a;" horiz-adv-x="392" 
d="M430 485h-82l9 36q10 37 10 66q0 27 -16 42t-45 15q-53 0 -79 -43.5t-45 -128.5l-65 -295q-6 -27 -6 -45q0 -68 69 -68q45 0 65 26t40 106l13 52h82l-9 -36q-15 -62 -28.5 -97.5t-36 -67t-56.5 -44.5t-84 -13q-68 0 -106 35t-38 97q0 32 9 72l66 284q30 132 80 185.5
t140 53.5q63 0 99 -28.5t36 -78.5q0 -37 -11 -79zM395 871l-25 -107h-83l25 107h83z" />
    <glyph glyph-name="cdotaccent" unicode="&#x10b;" horiz-adv-x="346" 
d="M341 319h-75l4 18q9 37 9 60q0 49 -48 49q-33 0 -49.5 -20t-31.5 -85l-34 -147q-16 -71 -16 -93t13.5 -34.5t36.5 -12.5q37 0 55.5 31t30.5 101h78q-20 -110 -59 -153t-113 -43q-57 0 -90.5 27.5t-33.5 73.5q0 27 17 102l34 148q21 93 58.5 129t104.5 36q59 0 90.5 -25.5
t31.5 -74.5q0 -13 -10 -70zM317 666l-24 -103h-78l24 103h78z" />
    <glyph glyph-name="Ccaron" unicode="&#x10c;" horiz-adv-x="392" 
d="M430 485h-82l9 36q10 37 10 66q0 27 -16 42t-45 15q-53 0 -79 -43.5t-45 -128.5l-65 -295q-6 -27 -6 -45q0 -68 69 -68q45 0 65 26t40 106l13 52h82l-9 -36q-15 -62 -28.5 -97.5t-36 -67t-56.5 -44.5t-84 -13q-68 0 -106 35t-38 97q0 32 9 72l66 284q30 132 80 185.5
t140 53.5q63 0 99 -28.5t36 -78.5q0 -37 -11 -79zM402 871h78l-119 -107h-65l-80 107h78l42 -63z" />
    <glyph glyph-name="ccaron" unicode="&#x10d;" horiz-adv-x="346" 
d="M341 319h-75l4 18q9 37 9 60q0 49 -48 49q-33 0 -49.5 -20t-31.5 -85l-34 -147q-16 -71 -16 -93t13.5 -34.5t36.5 -12.5q37 0 55.5 31t30.5 101h78q-20 -110 -59 -153t-113 -43q-57 0 -90.5 27.5t-33.5 73.5q0 27 17 102l34 148q21 93 58.5 129t104.5 36q59 0 90.5 -25.5
t31.5 -74.5q0 -13 -10 -70zM405 673l-123 -110h-65l-69 110h76l37 -63l66 63h78z" />
    <glyph glyph-name="Dcaron" unicode="&#x10e;" horiz-adv-x="430" 
d="M164 706h153q154 0 154 -127q0 -43 -18 -118l-51 -219q-18 -80 -33.5 -121.5t-45.5 -72t-71.5 -39.5t-114.5 -9h-136zM233 625l-126 -547h61q24 0 42.5 3.5t32 8.5t24 17t16.5 21t13 30.5t10 35t10 43.5l51 227q14 60 14 87q0 41 -22 57.5t-77 16.5h-49zM380 871h78
l-119 -107h-65l-80 107h78l42 -63z" />
    <glyph glyph-name="dcaron" unicode="&#x10f;" horiz-adv-x="367" 
d="M442 706l-163 -706h-75l10 46q-44 -54 -100 -54q-45 0 -71 27.5t-26 74.5q0 25 18 101l31 130q23 98 48 132q39 52 101 52q60 0 89 -52l57 249h81zM239 179l32 133q12 50 12 69q0 30 -15 46.5t-41 16.5q-38 0 -57 -36q-10 -20 -27 -91l-29 -120q-15 -63 -15 -86
q0 -25 13 -39t35 -14q63 0 92 121zM472 706h78l-14 -60q-13 -54 -34 -81.5t-71 -36.5l8 35q25 6 36 21.5t17 42.5h-38z" />
    <glyph glyph-name="Dcroat" unicode="&#x110;" horiz-adv-x="430" 
d="M164 706h133q83 0 119 -21q55 -32 55 -106q0 -43 -18 -118l-51 -219q-19 -78 -34 -121q-22 -54 -53 -79q-32 -27 -80 -36q-35 -6 -100 -6h-134l83 356h-63l14 63h63zM233 625l-47 -206h107l-15 -63h-107l-64 -278h61q77 0 104 34q22 27 44 125l51 227q14 60 14 87
q0 41 -22 57.5t-77 16.5h-49z" />
    <glyph glyph-name="dcroat" unicode="&#x111;" horiz-adv-x="367" 
d="M442 706l-20 -85h49l-14 -60h-49l-129 -561h-75l10 46q-44 -54 -100 -54q-45 0 -71 27.5t-26 74.5q0 25 18 101l31 130q23 98 48 132q39 52 101 52q60 0 89 -52l24 104h-106l14 60h105l20 85h81zM239 179l32 133q12 50 12 69q0 30 -15 46.5t-41 16.5q-38 0 -57 -36
q-10 -20 -27 -91l-29 -120q-15 -63 -15 -86q0 -25 13 -39t35 -14q63 0 92 121z" />
    <glyph glyph-name="Emacron" unicode="&#x112;" 
d="M455 706l-18 -79h-206l-48 -210h192l-19 -80h-192l-59 -258h225l-19 -79h-310l163 706h291zM429 773h-224l12 64h224z" />
    <glyph glyph-name="emacron" unicode="&#x113;" horiz-adv-x="344" 
d="M321 233h-199l-15 -65q-9 -43 -9 -58q0 -53 52 -53q30 0 46.5 22t26.5 75h81q-17 -77 -42 -112q-37 -51 -120 -51q-125 0 -125 107q0 26 11 72l42 182q20 86 51 115q40 38 110 38q54 0 87 -27.5t33 -73.5q0 -37 -19 -121zM137 297h120l11 54q6 29 6 46q0 48 -49 48
q-36 0 -54 -29q-11 -18 -29 -98zM363 575h-217l12 64h217z" />
    <glyph glyph-name="Ebreve" unicode="&#x114;" 
d="M455 706l-18 -79h-206l-48 -210h192l-19 -80h-192l-59 -258h225l-19 -79h-310l163 706h291zM422 888l29 -19q-43 -111 -124 -111q-43 0 -71 33t-33 92l34 9q4 -36 23.5 -55.5t50.5 -19.5q59 0 91 71z" />
    <glyph glyph-name="ebreve" unicode="&#x115;" horiz-adv-x="344" 
d="M321 233h-199l-15 -65q-9 -43 -9 -58q0 -53 52 -53q30 0 46.5 22t26.5 75h81q-17 -77 -42 -112q-37 -51 -120 -51q-125 0 -125 107q0 26 11 72l42 182q20 86 51 115q40 38 110 38q54 0 87 -27.5t33 -73.5q0 -37 -19 -121zM137 297h120l11 54q6 29 6 46q0 48 -49 48
q-36 0 -54 -29q-11 -18 -29 -98zM352 693l29 -20q-44 -116 -121 -116q-42 0 -68 34t-33 96l34 10q4 -38 22.5 -59.5t48.5 -21.5q55 0 88 77z" />
    <glyph glyph-name="Edotaccent" unicode="&#x116;" 
d="M455 706l-18 -79h-206l-48 -210h192l-19 -80h-192l-59 -258h225l-19 -79h-310l163 706h291zM388 871l-25 -107h-83l25 107h83z" />
    <glyph glyph-name="edotaccent" unicode="&#x117;" horiz-adv-x="344" 
d="M321 233h-199l-15 -65q-9 -43 -9 -58q0 -53 52 -53q30 0 46.5 22t26.5 75h81q-17 -77 -42 -112q-37 -51 -120 -51q-125 0 -125 107q0 26 11 72l42 182q20 86 51 115q40 38 110 38q54 0 87 -27.5t33 -73.5q0 -37 -19 -121zM137 297h120l11 54q6 29 6 46q0 48 -49 48
q-36 0 -54 -29q-11 -18 -29 -98zM306 666l-24 -103h-78l24 103h78z" />
    <glyph glyph-name="Eogonek" unicode="&#x118;" 
d="M219 0h-218l163 706h291l-18 -79h-206l-48 -210h192l-19 -80h-192l-59 -258h225l-19 -79h-14q-23 -10 -46.5 -36.5t-23.5 -43.5q0 -20 38 -20h17l-11 -61h-37q-83 0 -83 46q0 42 68 115z" />
    <glyph glyph-name="eogonek" unicode="&#x119;" horiz-adv-x="344" 
d="M321 233h-199l-15 -65q-9 -43 -9 -58q0 -53 52 -53q30 0 46.5 22t26.5 75h81q-16 -71 -35.5 -103t-58.5 -49q-20 -9 -46 -36t-26 -46q0 -20 38 -20h17l-11 -61h-37q-83 0 -83 46q0 40 60 107q-105 9 -105 106q0 26 11 72l42 182q21 86 51 115q41 38 110 38q54 0 87 -27.5
t33 -73.5q0 -37 -19 -121zM137 297h120l11 54q6 29 6 46q0 48 -49 48q-36 0 -54 -29q-11 -18 -29 -98z" />
    <glyph glyph-name="Ecaron" unicode="&#x11a;" 
d="M455 706l-18 -79h-206l-48 -210h192l-19 -80h-192l-59 -258h225l-19 -79h-310l163 706h291zM385 871h78l-119 -107h-65l-80 107h78l42 -63z" />
    <glyph glyph-name="ecaron" unicode="&#x11b;" horiz-adv-x="344" 
d="M321 233h-199l-15 -65q-9 -43 -9 -58q0 -53 52 -53q30 0 46.5 22t26.5 75h81q-17 -77 -42 -112q-37 -51 -120 -51q-125 0 -125 107q0 26 11 72l42 182q20 86 51 115q40 38 110 38q54 0 87 -27.5t33 -73.5q0 -37 -19 -121zM137 297h120l11 54q6 29 6 46q0 48 -49 48
q-36 0 -54 -29q-11 -18 -29 -98zM394 673l-123 -110h-65l-69 110h76l37 -63l66 63h78z" />
    <glyph glyph-name="Gcircumflex" unicode="&#x11c;" horiz-adv-x="424" 
d="M423 365l-84 -365h-74l12 49q-62 -58 -135 -58q-57 0 -89 33.5t-32 93.5q0 33 12 88l70 295q28 117 76 166.5t142 49.5q70 0 107.5 -29t37.5 -82q0 -28 -9 -66l-12 -50h-84l8 36q9 39 9 60q0 57 -67 57q-49 0 -74 -30t-45 -114l-59 -250q-21 -94 -21 -124q0 -29 18 -45.5
t50 -16.5q51 0 83 40q26 32 44 114l16 72h-104l18 76h186zM468 763h-79l-41 63l-66 -63h-78l119 107h65z" />
    <glyph glyph-name="gcircumflex" unicode="&#x11d;" 
d="M321 497h74l-123 -526q-33 -139 -169 -139q-55 0 -89 27.5t-34 72.5q0 12 3 28h75q-2 -7 -2 -15q0 -49 54 -49q23 0 39.5 8t25.5 25t12 26.5t8 29.5l11 46q-35 -34 -85 -34t-76.5 26.5t-26.5 76.5q0 24 12 77l38 162q20 86 54.5 126t94.5 40q64 0 94 -53zM246 196l28 121
q12 49 12 69q0 27 -14.5 42t-40.5 15q-32 0 -49.5 -22t-36.5 -101l-30 -125q-14 -60 -14 -81q0 -52 52 -52q39 0 58 30.5t35 103.5zM382 563h-77l-36 63l-66 -63h-79l123 110h65z" />
    <glyph glyph-name="Gbreve" unicode="&#x11e;" horiz-adv-x="424" 
d="M423 365l-84 -365h-74l12 49q-62 -58 -135 -58q-57 0 -89 33.5t-32 93.5q0 33 12 88l70 295q28 117 76 166.5t142 49.5q70 0 107.5 -29t37.5 -82q0 -28 -9 -66l-12 -50h-84l8 36q9 39 9 60q0 57 -67 57q-49 0 -74 -30t-45 -114l-59 -250q-21 -94 -21 -124q0 -29 18 -45.5
t50 -16.5q51 0 83 40q26 32 44 114l16 72h-104l18 76h186zM428 888l29 -19q-43 -111 -124 -111q-43 0 -71 33t-33 92l34 9q4 -36 23.5 -55.5t50.5 -19.5q59 0 91 71z" />
    <glyph glyph-name="gbreve" unicode="&#x11f;" 
d="M321 497h74l-123 -526q-33 -139 -169 -139q-55 0 -89 27.5t-34 72.5q0 12 3 28h75q-2 -7 -2 -15q0 -49 54 -49q23 0 39.5 8t25.5 25t12 26.5t8 29.5l11 46q-35 -34 -85 -34t-76.5 26.5t-26.5 76.5q0 24 12 77l38 162q20 86 54.5 126t94.5 40q64 0 94 -53zM246 196l28 121
q12 49 12 69q0 27 -14.5 42t-40.5 15q-32 0 -49.5 -22t-36.5 -101l-30 -125q-14 -60 -14 -81q0 -52 52 -52q39 0 58 30.5t35 103.5zM357 693l29 -20q-44 -116 -121 -116q-42 0 -68 34t-33 96l34 10q4 -38 22.5 -59.5t48.5 -21.5q55 0 88 77z" />
    <glyph glyph-name="Gdotaccent" unicode="&#x120;" horiz-adv-x="424" 
d="M423 365l-84 -365h-74l12 49q-62 -58 -135 -58q-57 0 -89 33.5t-32 93.5q0 33 12 88l70 295q28 117 76 166.5t142 49.5q70 0 107.5 -29t37.5 -82q0 -28 -9 -66l-12 -50h-84l8 36q9 39 9 60q0 57 -67 57q-49 0 -74 -30t-45 -114l-59 -250q-21 -94 -21 -124q0 -29 18 -45.5
t50 -16.5q51 0 83 40q26 32 44 114l16 72h-104l18 76h186zM403 871l-25 -107h-83l25 107h83z" />
    <glyph glyph-name="gdotaccent" unicode="&#x121;" 
d="M321 497h74l-123 -526q-33 -139 -169 -139q-55 0 -89 27.5t-34 72.5q0 12 3 28h75q-2 -7 -2 -15q0 -49 54 -49q23 0 39.5 8t25.5 25t12 26.5t8 29.5l11 46q-35 -34 -85 -34t-76.5 26.5t-26.5 76.5q0 24 12 77l38 162q20 86 54.5 126t94.5 40q64 0 94 -53zM246 196l28 121
q12 49 12 69q0 27 -14.5 42t-40.5 15q-32 0 -49.5 -22t-36.5 -101l-30 -125q-14 -60 -14 -81q0 -52 52 -52q39 0 58 30.5t35 103.5zM322 666l-24 -103h-78l24 103h78z" />
    <glyph glyph-name="Gcommaaccent" unicode="&#x122;" horiz-adv-x="424" 
d="M423 365l-84 -365h-74l12 49q-62 -58 -135 -58q-57 0 -89 33.5t-32 93.5q0 33 12 88l70 295q28 117 76 166.5t142 49.5q70 0 107.5 -29t37.5 -82q0 -28 -9 -66l-12 -50h-84l8 36q9 39 9 60q0 57 -67 57q-49 0 -74 -30t-45 -114l-59 -250q-21 -94 -21 -124q0 -29 18 -45.5
t50 -16.5q51 0 83 40q26 32 44 114l16 72h-104l18 76h186zM127 -29h71l-10 -43q-8 -35 -28.5 -53.5t-60.5 -24.5l6 26q33 9 38 34h-30z" />
    <glyph glyph-name="gcommaaccent" unicode="&#x123;" 
d="M321 497h74l-123 -526q-33 -139 -169 -139q-55 0 -89 27.5t-34 72.5q0 12 3 28h75q-2 -7 -2 -15q0 -49 54 -49q23 0 39.5 8t25.5 25t12 26.5t8 29.5l11 46q-35 -34 -85 -34t-76.5 26.5t-26.5 76.5q0 24 12 77l38 162q20 86 54.5 126t94.5 40q64 0 94 -53zM246 196l28 121
q12 49 12 69q0 27 -14.5 42t-40.5 15q-32 0 -49.5 -22t-36.5 -101l-30 -125q-14 -60 -14 -81q0 -52 52 -52q39 0 58 30.5t35 103.5zM292 564h-71l10 43q8 35 28.5 53.5t60.5 24.5l-6 -26q-33 -9 -38 -34h30z" />
    <glyph glyph-name="Hcircumflex" unicode="&#x124;" horiz-adv-x="433" 
d="M486 706l-163 -706h-85l73 328h-157l-75 -328h-86l163 706h85l-70 -301h157l73 301h85zM474 763h-79l-41 63l-66 -63h-78l119 107h65z" />
    <glyph glyph-name="hcircumflex" unicode="&#x125;" 
d="M238 706l-57 -249q40 49 94 49q43 0 69.5 -24.5t26.5 -63.5q0 -26 -10 -69l-81 -349h-80l80 350q6 24 6 40q0 24 -13.5 38t-36.5 14q-31 0 -49 -19.5t-28 -61.5l-83 -361h-80l162 706h80zM335 763h-79l-41 63l-66 -63h-78l119 107h65z" />
    <glyph glyph-name="Hbar" unicode="&#x126;" horiz-adv-x="433" 
d="M77 527l17 70h44l26 109h85l-26 -109h159l27 109h85l-26 -109h44l-17 -70h-43l-121 -527h-85l73 328h-157l-75 -328h-86l121 527h-45zM179 405h157l29 122h-158z" />
    <glyph glyph-name="hbar" unicode="&#x127;" 
d="M92 621h46l20 85h80l-20 -85h109l-14 -60h-108l-24 -104q40 49 94 49q43 0 69.5 -24.5t26.5 -63.5q0 -26 -10 -69l-81 -349h-80l80 350q6 24 6 40q0 24 -13.5 38t-36.5 14q-31 0 -49 -19.5t-28 -61.5l-83 -361h-80l128 561h-46z" />
    <glyph glyph-name="Itilde" unicode="&#x128;" horiz-adv-x="188" 
d="M249 706l-162 -706h-86l163 706h85zM322 851h38q-5 -41 -26 -66t-56 -25q-29 0 -69 20q-34 17 -46 17q-28 0 -36 -37h-40q5 42 30 68t62 26q20 0 56 -16l27 -13q17 -7 30 -7q23 0 30 33z" />
    <glyph glyph-name="itilde" unicode="&#x129;" horiz-adv-x="165" 
d="M191 496l-115 -496h-80l114 496h81zM268 658h37q-5 -41 -25 -65.5t-54 -24.5q-26 0 -65 19q-35 17 -44 17q-27 0 -35 -36h-37q5 42 28.5 67.5t58.5 25.5q20 0 53 -16l26 -13q16 -7 28 -7q22 0 29 33z" />
    <glyph glyph-name="uni012A" unicode="&#x12a;" horiz-adv-x="188" 
d="M249 706l-162 -706h-86l163 706h85zM316 773h-204l12 64h204z" />
    <glyph glyph-name="imacron" unicode="&#x12b;" horiz-adv-x="165" 
d="M191 496l-115 -496h-80l114 496h81zM262 575h-199l12 64h199z" />
    <glyph glyph-name="Ibreve" unicode="&#x12c;" horiz-adv-x="188" 
d="M249 706l-162 -706h-86l163 706h85zM316 888l29 -19q-43 -111 -124 -111q-43 0 -71 33t-33 92l34 9q4 -36 23.5 -55.5t50.5 -19.5q59 0 91 71z" />
    <glyph glyph-name="uni012D" unicode="&#x12d;" horiz-adv-x="165" 
d="M191 496l-115 -496h-80l114 496h81zM259 693l29 -20q-44 -116 -121 -116q-42 0 -68 34t-33 96l34 10q4 -38 22.5 -59.5t48.5 -21.5q55 0 88 77z" />
    <glyph glyph-name="Iogonek" unicode="&#x12e;" horiz-adv-x="188" 
d="M164 706h85l-162 -706q-23 -11 -46 -37.5t-23 -42.5q0 -20 38 -20h17l-11 -61h-37q-83 0 -83 46q0 42 68 115h-9z" />
    <glyph glyph-name="iogonek" unicode="&#x12f;" horiz-adv-x="165" 
d="M110 497h81l-115 -497h-5q-60 -57 -60 -80q0 -20 38 -20h17l-11 -61h-37q-83 0 -83 46q0 42 68 115h-7zM234 691l-24 -103h-80l24 103h80z" />
    <glyph glyph-name="Idotaccent" unicode="&#x130;" horiz-adv-x="188" 
d="M249 706l-162 -706h-86l163 706h85zM285 871l-25 -107h-83l25 107h83z" />
    <glyph glyph-name="dotlessi" unicode="&#x131;" horiz-adv-x="165" 
d="M191 496l-115 -496h-80l114 496h81z" />
    <glyph glyph-name="IJ" unicode="&#x132;" horiz-adv-x="456" 
d="M249 706l-162 -706h-86l163 706h85zM520 706l-120 -530q-20 -90 -38 -120q-36 -65 -133 -65q-48 0 -93 17l24 74q33 -13 66 -13q41 0 58 24t33 95l116 518h87z" />
    <glyph glyph-name="ij" unicode="&#x133;" horiz-adv-x="345" 
d="M234 691l-24 -103h-80l24 103h80zM191 497l-115 -497h-80l114 497h81zM414 691l-24 -104h-80l24 104h80zM368 497l-118 -508q-11 -47 -18 -69t-22.5 -46.5t-40.5 -33.5t-64 -9q-17 0 -57 4l16 66q32 -3 44 -3q28 0 39 17.5t29 92.5l113 489h79z" />
    <glyph glyph-name="Jcircumflex" unicode="&#x134;" horiz-adv-x="271" 
d="M335 706l-120 -530q-20 -90 -38 -120q-36 -65 -133 -65q-48 0 -93 17l24 74q33 -13 66 -13q41 0 58 24t33 95l116 518h87zM435 763h-79l-41 63l-66 -63h-78l119 107h65z" />
    <glyph glyph-name="jcircumflex" unicode="&#x135;" horiz-adv-x="180" 
d="M203 497l-118 -508q-11 -47 -18 -69t-22.5 -46.5t-40.5 -33.5t-64 -9q-17 0 -57 4l16 66q31 -3 44 -3q28 0 39 17.5t29 92.5l113 489h79zM306 563h-77l-36 63l-66 -63h-79l123 110h65z" />
    <glyph glyph-name="Kcommaaccent" unicode="&#x136;" horiz-adv-x="386" 
d="M492 706l-252 -340l113 -366h-87l-102 340l-78 -340h-85l163 706h85l-72 -306l223 306h92zM131 -29h71l-10 -43q-8 -35 -28.5 -53.5t-60.5 -24.5l6 26q33 9 38 34h-30z" />
    <glyph glyph-name="kcommaaccent" unicode="&#x137;" horiz-adv-x="354" 
d="M422 497l-177 -196l63 -301h-82l-44 235l-69 -73l-38 -162h-79l164 706h79l-98 -424l186 215h95zM110 -29h71l-10 -43q-8 -35 -28.5 -53.5t-60.5 -24.5l6 26q33 9 38 34h-30z" />
    <glyph glyph-name="kgreenlandic" unicode="&#x138;" horiz-adv-x="354" 
d="M422 497l-177 -196l63 -301h-82l-44 235l-69 -73l-38 -162h-79l115 497h79l-49 -215l186 215h95z" />
    <glyph glyph-name="Lacute" unicode="&#x139;" horiz-adv-x="349" 
d="M306 79l-18 -79h-287l164 706h86l-146 -627h201zM375 871l-123 -107h-64l78 107h109z" />
    <glyph glyph-name="lacute" unicode="&#x13a;" horiz-adv-x="165" 
d="M239 706l-163 -706h-80l162 706h81zM359 871l-123 -107h-64l78 107h109z" />
    <glyph glyph-name="Lcommaaccent" unicode="&#x13b;" horiz-adv-x="349" 
d="M306 79l-18 -79h-287l164 706h86l-146 -627h201zM109 -29h71l-10 -43q-8 -35 -28.5 -53.5t-60.5 -24.5l6 26q33 9 38 34h-30z" />
    <glyph glyph-name="lcommaaccent" unicode="&#x13c;" horiz-adv-x="165" 
d="M239 706l-163 -706h-80l162 706h81zM-6 -29h71l-10 -43q-8 -35 -28.5 -53.5t-60.5 -24.5l6 26q33 9 38 34h-30z" />
    <glyph glyph-name="Lcaron" unicode="&#x13d;" horiz-adv-x="349" 
d="M306 79l-18 -79h-287l164 706h86l-146 -627h201zM281 706h78l-14 -60q-13 -54 -34 -81.5t-71 -36.5l8 35q25 6 36 21.5t17 42.5h-38z" />
    <glyph glyph-name="lcaron" unicode="&#x13e;" horiz-adv-x="165" 
d="M239 706l-163 -706h-80l162 706h81zM269 706h78l-14 -60q-13 -54 -34 -81.5t-71 -36.5l8 35q25 6 36 21.5t17 42.5h-38z" />
    <glyph glyph-name="Ldot" unicode="&#x13f;" horiz-adv-x="349" 
d="M306 79l-18 -79h-287l164 706h86l-146 -627h201zM330 322h-87l25 111h87z" />
    <glyph glyph-name="ldot" unicode="&#x140;" horiz-adv-x="242" 
d="M239 706l-163 -706h-80l162 706h81zM269 315h-79l24 105h79z" />
    <glyph glyph-name="Lslash" unicode="&#x141;" horiz-adv-x="349" 
d="M312 541l-23 -98l-128 -124l-56 -240h201l-18 -79h-287l52 226l-69 -67l23 99l69 67l89 381h86l-67 -287z" />
    <glyph glyph-name="lslash" unicode="&#x142;" horiz-adv-x="165" 
d="M239 706l-60 -254l53 50l-22 -96l-52 -50l-82 -356h-80l62 272l-55 -54l21 96l55 53l79 339h81z" />
    <glyph glyph-name="Nacute" unicode="&#x143;" horiz-adv-x="440" 
d="M502 706l-164 -706h-120q2 596 2 639l-136 -639h-83l164 706h118l2 -640l135 640h82zM479 871l-123 -107h-64l78 107h109z" />
    <glyph glyph-name="nacute" unicode="&#x144;" 
d="M110 497h78l-8 -40q39 49 96 49q42 0 68.5 -24.5t26.5 -63.5q0 -26 -10 -69l-81 -349h-80l80 350q6 24 6 40q0 24 -13.5 38t-36.5 14q-30 0 -48.5 -19t-28.5 -62l-83 -361h-80zM403 671l-132 -107h-64l87 107h109z" />
    <glyph glyph-name="Ncommaaccent" unicode="&#x145;" horiz-adv-x="440" 
d="M502 706l-164 -706h-120q2 596 2 639l-136 -639h-83l164 706h118l2 -640l135 640h82zM139 -29h71l-10 -43q-8 -35 -28.5 -53.5t-60.5 -24.5l6 26q33 9 38 34h-30z" />
    <glyph glyph-name="ncommaaccent" unicode="&#x146;" 
d="M110 497h78l-8 -40q39 49 96 49q42 0 68.5 -24.5t26.5 -63.5q0 -26 -10 -69l-81 -349h-80l80 350q6 24 6 40q0 24 -13.5 38t-36.5 14q-30 0 -48.5 -19t-28.5 -62l-83 -361h-80zM98 -29h71l-10 -43q-8 -35 -28.5 -53.5t-60.5 -24.5l6 26q33 9 38 34h-30z" />
    <glyph glyph-name="Ncaron" unicode="&#x147;" horiz-adv-x="440" 
d="M502 706l-164 -706h-120q2 596 2 639l-136 -639h-83l164 706h118l2 -640l135 640h82zM409 871h78l-119 -107h-65l-80 107h78l42 -63z" />
    <glyph glyph-name="ncaron" unicode="&#x148;" 
d="M110 497h78l-8 -40q39 49 96 49q42 0 68.5 -24.5t26.5 -63.5q0 -26 -10 -69l-81 -349h-80l80 350q6 24 6 40q0 24 -13.5 38t-36.5 14q-30 0 -48.5 -19t-28.5 -62l-83 -361h-80zM402 673l-123 -110h-65l-69 110h76l37 -63l66 63h78z" />
    <glyph glyph-name="napostrophe" unicode="&#x149;" 
d="M110 497h78l-8 -40q39 49 96 49q42 0 68.5 -24.5t26.5 -63.5q0 -26 -10 -69l-81 -349h-80l80 350q6 24 6 40q0 24 -13.5 38t-36.5 14q-30 0 -48.5 -19t-28.5 -62l-83 -361h-80zM102 706h78l-14 -60q-13 -54 -34 -81.5t-71 -36.5l8 35q25 6 36 21.5t17 42.5h-38z" />
    <glyph glyph-name="Eng" unicode="&#x14a;" horiz-adv-x="440" 
d="M165 706h118l23 -536l114 536h82l-173 -745q-19 -81 -51.5 -105.5t-97.5 -24.5q-12 0 -32 2l16 70q22 -2 27 -2q23 0 36 13t20 53q-27 629 -27 672l-136 -639h-83z" />
    <glyph glyph-name="eng" unicode="&#x14b;" 
d="M76 0h-80l114 497h78l-8 -40q39 49 96 49q42 0 68.5 -24.5t26.5 -63.5q0 -26 -10 -69l-86 -372q-20 -87 -50 -116.5t-101 -29.5q-13 0 -37 2l16 68q18 -2 29 -2q26 0 38 12.5t20 49.5l90 389q6 24 6 40q0 24 -13.5 38t-36.5 14q-30 0 -48.5 -19t-28.5 -62z" />
    <glyph glyph-name="Omacron" unicode="&#x14c;" horiz-adv-x="422" 
d="M451 505l-81 -346q-21 -90 -63 -128.5t-121 -38.5q-78 0 -120.5 33t-42.5 92q0 31 12 82l81 346q20 88 66.5 129t123.5 41q73 0 114.5 -34t41.5 -94q0 -34 -11 -82zM281 165l82 344q11 47 11 66q0 66 -73 66q-41 0 -62.5 -22t-36.5 -86l-81 -348q-8 -34 -8 -56
q0 -65 74 -65q38 0 59.5 23.5t34.5 77.5zM445 773h-224l12 64h224z" />
    <glyph glyph-name="omacron" unicode="&#x14d;" horiz-adv-x="354" 
d="M351 343l-49 -212q-18 -77 -54.5 -108.5t-102.5 -31.5q-62 0 -95 27t-33 78q0 29 10 73l44 192q17 76 54.5 110t104.5 34q129 0 129 -109q0 -15 -8 -53zM222 134l48 215q6 27 6 42q0 50 -52 50q-29 0 -45 -17t-27 -67l-46 -212q-7 -33 -7 -46q0 -46 53 -46q29 0 44.5 18
t25.5 63zM365 575h-217l12 64h217z" />
    <glyph glyph-name="Obreve" unicode="&#x14e;" horiz-adv-x="422" 
d="M451 505l-81 -346q-21 -90 -63 -128.5t-121 -38.5q-78 0 -120.5 33t-42.5 92q0 31 12 82l81 346q20 88 66.5 129t123.5 41q73 0 114.5 -34t41.5 -94q0 -34 -11 -82zM281 165l82 344q11 47 11 66q0 66 -73 66q-41 0 -62.5 -22t-36.5 -86l-81 -348q-8 -34 -8 -56
q0 -65 74 -65q38 0 59.5 23.5t34.5 77.5zM437 888l29 -19q-44 -111 -124 -111q-43 0 -71 33t-33 92l34 9q4 -36 23.5 -55.5t50.5 -19.5q59 0 91 71z" />
    <glyph glyph-name="obreve" unicode="&#x14f;" horiz-adv-x="354" 
d="M351 343l-49 -212q-18 -77 -54.5 -108.5t-102.5 -31.5q-62 0 -95 27t-33 78q0 29 10 73l44 192q17 76 54.5 110t104.5 34q129 0 129 -109q0 -15 -8 -53zM222 134l48 215q6 27 6 42q0 50 -52 50q-29 0 -45 -17t-27 -67l-46 -212q-7 -33 -7 -46q0 -46 53 -46q29 0 44.5 18
t25.5 63zM360 693l29 -20q-44 -116 -121 -116q-42 0 -68 34t-33 96l34 10q4 -38 22.5 -59.5t48.5 -21.5q55 0 88 77z" />
    <glyph glyph-name="Ohungarumlaut" unicode="&#x150;" horiz-adv-x="422" 
d="M451 505l-81 -346q-21 -90 -63 -128.5t-121 -38.5q-78 0 -120.5 33t-42.5 92q0 31 12 82l81 346q20 88 66.5 129t123.5 41q73 0 114.5 -34t41.5 -94q0 -34 -11 -82zM281 165l82 344q11 47 11 66q0 66 -73 66q-41 0 -62.5 -22t-36.5 -86l-81 -348q-8 -34 -8 -56
q0 -65 74 -65q38 0 59.5 23.5t34.5 77.5zM542 871l-122 -107h-58l78 107h102zM407 871l-122 -107h-58l78 107h102z" />
    <glyph glyph-name="ohungarumlaut" unicode="&#x151;" horiz-adv-x="354" 
d="M351 343l-49 -212q-18 -77 -54.5 -108.5t-102.5 -31.5q-62 0 -95 27t-33 78q0 29 10 73l44 192q17 76 54.5 110t104.5 34q129 0 129 -109q0 -15 -8 -53zM222 134l48 215q6 27 6 42q0 50 -52 50q-29 0 -45 -17t-27 -67l-46 -212q-7 -33 -7 -46q0 -46 53 -46q29 0 44.5 18
t25.5 63zM474 671l-131 -107h-58l87 107h102zM339 671l-131 -107h-58l87 107h102z" />
    <glyph glyph-name="OE" unicode="&#x152;" horiz-adv-x="612" 
d="M675 706l-19 -79h-183l-46 -210h176l-19 -78h-175l-58 -260h221l-19 -79h-191q-61 0 -116 -3.5t-75 -3.5q-68 0 -108 33.5t-40 90.5q0 31 12 82l81 346q20 87 65 127.5t121 40.5q6 0 65.5 -3.5t118.5 -3.5h189zM281 165l82 344q11 47 11 66q0 66 -73 66q-41 0 -62.5 -22
t-36.5 -86l-81 -348q-8 -34 -8 -56q0 -65 74 -65q38 0 59.5 23.5t34.5 77.5z" />
    <glyph glyph-name="oe" unicode="&#x153;" horiz-adv-x="544" 
d="M521 234h-199l-15 -66q-8 -36 -8 -57q0 -54 53 -54q30 0 46.5 22t26.5 76h78q-15 -84 -50 -123.5t-108 -39.5q-56 0 -96 37q-44 -38 -106 -38q-61 0 -93.5 27.5t-32.5 77.5q0 29 10 73l44 192q17 75 54.5 109.5t102.5 34.5q66 0 100 -38q43 39 105 39q58 0 89 -26.5
t31 -76.5q0 -23 -10 -69zM337 298h118l12 53q7 28 7 47q0 47 -50 47q-36 0 -53 -28q-17 -30 -30 -98zM222 134l48 215q6 27 6 42q0 50 -52 50q-30 0 -46 -18t-26 -66l-46 -212q-7 -33 -7 -46q0 -46 53 -46q29 0 44.5 18t25.5 63z" />
    <glyph glyph-name="Racute" unicode="&#x154;" horiz-adv-x="413" 
d="M164 706h129q55 0 84 -7.5t49 -26.5q32 -32 32 -97q0 -57 -17 -114.5t-45 -91.5q-33 -42 -93 -52l56 -317h-87l-49 310h-67l-72 -310h-83zM229 626l-57 -247h40q57 0 84 10.5t41 36.5q31 62 31 130q0 43 -21 56.5t-80 13.5h-38zM444 871l-123 -107h-64l78 107h109z" />
    <glyph glyph-name="racute" unicode="&#x155;" horiz-adv-x="251" 
d="M111 497h77l-21 -85q25 43 62 68t78 25h14l-21 -85q-8 1 -19 1q-56 0 -90.5 -37t-52.5 -118l-60 -266h-82zM337 671l-132 -107h-64l87 107h109z" />
    <glyph glyph-name="Rcommaaccent" unicode="&#x156;" horiz-adv-x="413" 
d="M164 706h129q55 0 84 -7.5t49 -26.5q32 -32 32 -97q0 -57 -17 -114.5t-45 -91.5q-33 -42 -93 -52l56 -317h-87l-49 310h-67l-72 -310h-83zM229 626l-57 -247h40q57 0 84 10.5t41 36.5q31 62 31 130q0 43 -21 56.5t-80 13.5h-38zM138 -29h71l-10 -43q-8 -35 -28.5 -53.5
t-60.5 -24.5l6 26q33 9 38 34h-30z" />
    <glyph glyph-name="rcommaaccent" unicode="&#x157;" horiz-adv-x="251" 
d="M111 497h77l-21 -85q25 43 62 68t78 25h14l-21 -85q-8 1 -19 1q-56 0 -90.5 -37t-52.5 -118l-60 -266h-82zM-2 -29h71l-10 -43q-8 -35 -28.5 -53.5t-60.5 -24.5l6 26q33 9 38 34h-30z" />
    <glyph glyph-name="Rcaron" unicode="&#x158;" horiz-adv-x="413" 
d="M164 706h129q55 0 84 -7.5t49 -26.5q32 -32 32 -97q0 -57 -17 -114.5t-45 -91.5q-33 -42 -93 -52l56 -317h-87l-49 310h-67l-72 -310h-83zM229 626l-57 -247h40q57 0 84 10.5t41 36.5q31 62 31 130q0 43 -21 56.5t-80 13.5h-38zM373 871h78l-119 -107h-65l-80 107h78
l42 -63z" />
    <glyph glyph-name="rcaron" unicode="&#x159;" horiz-adv-x="251" 
d="M111 497h77l-21 -85q25 43 62 68t78 25h14l-21 -85q-8 1 -19 1q-56 0 -90.5 -37t-52.5 -118l-60 -266h-82zM367 673l-123 -110h-65l-69 110h76l37 -63l66 63h78z" />
    <glyph glyph-name="Sacute" unicode="&#x15a;" horiz-adv-x="366" 
d="M409 493h-79l10 44q6 26 6 40q0 64 -62 64q-43 0 -66.5 -28t-23.5 -78q0 -26 7 -45t32 -58l69 -108q43 -68 43 -133q0 -93 -50.5 -146t-138.5 -53q-74 0 -116 36.5t-42 100.5q0 31 9 67l13 53h84l-8 -34q-13 -56 -13 -76q0 -74 80 -74q45 0 70.5 31t25.5 86q0 44 -34 97
l-77 120q-43 68 -43 125q0 89 49.5 139.5t135.5 50.5q137 0 137 -116q0 -24 -11 -73zM444 871l-123 -107h-64l78 107h109z" />
    <glyph glyph-name="sacute" unicode="&#x15b;" horiz-adv-x="310" 
d="M321 346h-71q6 28 6 47q0 50 -52 50q-30 0 -46 -18t-16 -41q0 -17 8 -32.5t40 -52.5l48 -55q26 -30 35.5 -53t9.5 -54q0 -64 -42 -104.5t-108 -40.5q-61 0 -96.5 30t-35.5 81q0 27 12 75h76q-11 -41 -11 -64q0 -58 63 -58q31 0 48 19t17 53q0 19 -8 34t-31 42l-51 59
q-48 55 -48 107q0 61 39.5 98.5t103.5 37.5q55 0 86.5 -27t31.5 -74q0 -23 -8 -59zM376 671l-132 -107h-64l87 107h109z" />
    <glyph glyph-name="Scircumflex" unicode="&#x15c;" horiz-adv-x="366" 
d="M409 493h-79l10 44q6 26 6 40q0 64 -62 64q-43 0 -66.5 -28t-23.5 -78q0 -26 7 -45t32 -58l69 -108q43 -68 43 -133q0 -93 -50.5 -146t-138.5 -53q-74 0 -116 36.5t-42 100.5q0 31 9 67l13 53h84l-8 -34q-13 -56 -13 -76q0 -74 80 -74q45 0 70.5 31t25.5 86q0 44 -34 97
l-77 120q-43 68 -43 125q0 89 49.5 139.5t135.5 50.5q137 0 137 -116q0 -24 -11 -73zM439 763h-79l-41 63l-66 -63h-78l119 107h65z" />
    <glyph glyph-name="scircumflex" unicode="&#x15d;" horiz-adv-x="310" 
d="M321 346h-71q6 28 6 47q0 50 -52 50q-30 0 -46 -18t-16 -41q0 -17 8 -32.5t40 -52.5l48 -55q26 -30 35.5 -53t9.5 -54q0 -64 -42 -104.5t-108 -40.5q-61 0 -96.5 30t-35.5 81q0 27 12 75h76q-11 -41 -11 -64q0 -58 63 -58q31 0 48 19t17 53q0 19 -8 34t-31 42l-51 59
q-48 55 -48 107q0 61 39.5 98.5t103.5 37.5q55 0 86.5 -27t31.5 -74q0 -23 -8 -59zM354 563h-77l-36 63l-66 -63h-79l123 110h65z" />
    <glyph glyph-name="Scedilla" unicode="&#x15e;" horiz-adv-x="366" 
d="M409 493h-79l10 44q6 26 6 40q0 64 -62 64q-43 0 -66.5 -28t-23.5 -78q0 -26 7 -45t32 -58l69 -108q43 -68 43 -133q0 -93 -50.5 -146t-138.5 -53h-9l-35 -65q20 7 36 7q31 0 50.5 -16.5t19.5 -43.5q0 -37 -33 -63.5t-79 -26.5q-37 0 -86 27l17 23l4 -3q32 -16 53 -16
q26 0 43.5 14.5t17.5 36.5q0 15 -9.5 25t-25.5 10q-14 0 -30 -10l-19 9l48 95q-58 8 -89.5 43t-31.5 91q0 31 9 67l13 53h84l-8 -34q-13 -56 -13 -76q0 -74 80 -74q45 0 70.5 31t25.5 86q0 44 -34 97l-77 120q-43 68 -43 125q0 89 49.5 139.5t135.5 50.5q137 0 137 -116
q0 -24 -11 -73z" />
    <glyph glyph-name="scedilla" unicode="&#x15f;" horiz-adv-x="310" 
d="M321 346h-71q6 28 6 47q0 50 -52 50q-30 0 -46 -18t-16 -41q0 -17 8 -32.5t40 -52.5l48 -55q26 -30 35.5 -53t9.5 -54q0 -64 -42 -104.5t-108 -40.5q-9 0 -13 1l-35 -66q20 7 36 7q31 0 50.5 -16.5t19.5 -43.5q0 -37 -33 -63.5t-79 -26.5q-37 0 -86 27l17 23l4 -3
q32 -16 53 -16q26 0 43.5 14.5t17.5 36.5q0 15 -9.5 25t-25.5 10q-14 0 -30 -10l-19 9l49 96q-44 9 -68 37t-24 70q0 27 12 75h76q-11 -41 -11 -64q0 -58 63 -58q31 0 48 19t17 53q0 19 -8 34t-31 42l-51 59q-48 55 -48 107q0 61 39.5 98.5t103.5 37.5q55 0 86.5 -27
t31.5 -74q0 -23 -8 -59z" />
    <glyph glyph-name="Scaron" unicode="&#x160;" horiz-adv-x="366" 
d="M409 493h-79l10 44q6 26 6 40q0 64 -62 64q-43 0 -66.5 -28t-23.5 -78q0 -26 7 -45t32 -58l69 -108q43 -68 43 -133q0 -93 -50.5 -146t-138.5 -53q-74 0 -116 36.5t-42 100.5q0 31 9 67l13 53h84l-8 -34q-13 -56 -13 -76q0 -74 80 -74q45 0 70.5 31t25.5 86q0 44 -34 97
l-77 120q-43 68 -43 125q0 89 49.5 139.5t135.5 50.5q137 0 137 -116q0 -24 -11 -73zM369 871h78l-119 -107h-65l-80 107h78l42 -63z" />
    <glyph glyph-name="scaron" unicode="&#x161;" horiz-adv-x="310" 
d="M321 346h-71q6 28 6 47q0 50 -52 50q-30 0 -46 -18t-16 -41q0 -17 8 -32.5t40 -52.5l48 -55q26 -30 35.5 -53t9.5 -54q0 -64 -42 -104.5t-108 -40.5q-61 0 -96.5 30t-35.5 81q0 27 12 75h76q-11 -41 -11 -64q0 -58 63 -58q31 0 48 19t17 53q0 19 -8 34t-31 42l-51 59
q-48 55 -48 107q0 61 39.5 98.5t103.5 37.5q55 0 86.5 -27t31.5 -74q0 -23 -8 -59zM372 673l-123 -110h-65l-69 110h76l37 -63l66 63h78z" />
    <glyph glyph-name="Tcommaaccent" unicode="&#x162;" horiz-adv-x="370" 
d="M471 706l-19 -79h-126l-145 -627h-87l145 627h-138l19 79h351zM96 -29h71l-10 -43q-8 -35 -28.5 -53.5t-60.5 -24.5l6 26q33 9 38 34h-30z" />
    <glyph glyph-name="tcommaaccent" unicode="&#x163;" horiz-adv-x="223" 
d="M288 496l-14 -60h-72l-71 -305q-6 -24 -6 -41q0 -14 9.5 -22.5t25.5 -8.5q10 0 26 4l-16 -65q-23 -7 -47 -7q-86 0 -86 75q0 18 4 33l79 337h-53l14 60h53l20 85l88 35l-28 -120h74zM49 -29h71l-10 -43q-8 -35 -28.5 -53.5t-60.5 -24.5l6 26q33 9 38 34h-30z" />
    <glyph glyph-name="Tcaron" unicode="&#x164;" horiz-adv-x="370" 
d="M471 706l-19 -79h-126l-145 -627h-87l145 627h-138l19 79h351zM386 871h78l-119 -107h-65l-80 107h78l42 -63z" />
    <glyph glyph-name="tcaron" unicode="&#x165;" horiz-adv-x="223" 
d="M288 496l-14 -60h-72l-71 -305q-6 -24 -6 -41q0 -14 9.5 -22.5t25.5 -8.5q10 0 26 4l-16 -65q-23 -7 -47 -7q-86 0 -86 75q0 18 4 33l79 337h-53l14 60h53l20 85l88 35l-28 -120h74zM293 706h78l-14 -60q-13 -54 -34 -81.5t-71 -36.5l8 35q25 6 36 21.5t17 42.5h-38z" />
    <glyph glyph-name="Tbar" unicode="&#x166;" horiz-adv-x="370" 
d="M105 452l17 70h92l25 105h-138l19 79h351l-19 -79h-126l-25 -105h97l-17 -70h-96l-104 -452h-87l104 452h-93z" />
    <glyph glyph-name="tbar" unicode="&#x167;" horiz-adv-x="223" 
d="M225 293h-57l-37 -162q-6 -24 -6 -41q0 -14 9.5 -22.5t25.5 -8.5q10 0 26 4l-16 -65q-23 -7 -47 -7q-86 0 -86 75q0 18 4 33l45 194h-46l14 60h46l20 83h-53l14 60h53l20 85l88 35l-28 -120h74l-14 -60h-72l-20 -83h57z" />
    <glyph glyph-name="Utilde" unicode="&#x168;" horiz-adv-x="432" 
d="M496 706l-118 -510q-15 -66 -30.5 -102t-38.5 -58q-47 -47 -129 -47q-73 0 -112.5 31t-39.5 88q0 26 15 92l117 506h85l-126 -546q-4 -15 -4 -33q0 -63 72 -63q42 0 62 22q24 26 45 116l116 504h86zM449 851h38q-5 -41 -26 -66t-56 -25q-29 0 -69 20q-34 17 -46 17
q-28 0 -36 -37h-40q5 42 30 68t62 26q20 0 56 -16l27 -13q18 -7 30 -7q23 0 30 33z" />
    <glyph glyph-name="utilde" unicode="&#x169;" 
d="M392 497l-114 -497h-78l8 39q-40 -49 -96 -49q-42 0 -69 24.5t-27 64.5q0 24 10 68l82 350h80l-81 -351q-5 -20 -5 -40q0 -24 13.5 -38t36.5 -14q30 0 48 18.5t28 62.5l84 362h80zM371 658h37q-5 -41 -25 -65.5t-54 -24.5q-26 0 -65 19q-35 17 -44 17q-27 0 -35 -36h-37
q5 42 28.5 67.5t58.5 25.5q20 0 53 -16l26 -13q16 -7 28 -7q22 0 29 33z" />
    <glyph glyph-name="Umacron" unicode="&#x16a;" horiz-adv-x="432" 
d="M496 706l-118 -510q-15 -66 -30.5 -102t-38.5 -58q-47 -47 -129 -47q-73 0 -112.5 31t-39.5 88q0 26 15 92l117 506h85l-126 -546q-4 -15 -4 -33q0 -63 72 -63q42 0 62 22q24 26 45 116l116 504h86zM452 773h-224l12 64h224z" />
    <glyph glyph-name="umacron" unicode="&#x16b;" 
d="M392 497l-114 -497h-78l8 39q-40 -49 -96 -49q-42 0 -69 24.5t-27 64.5q0 24 10 68l82 350h80l-81 -351q-5 -20 -5 -40q0 -24 13.5 -38t36.5 -14q30 0 48 18.5t28 62.5l84 362h80zM372 575h-217l12 64h217z" />
    <glyph glyph-name="Ubreve" unicode="&#x16c;" horiz-adv-x="432" 
d="M496 706l-118 -510q-15 -66 -30.5 -102t-38.5 -58q-47 -47 -129 -47q-73 0 -112.5 31t-39.5 88q0 26 15 92l117 506h85l-126 -546q-4 -15 -4 -33q0 -63 72 -63q42 0 62 22q24 26 45 116l116 504h86zM431 888l29 -19q-43 -111 -124 -111q-43 0 -71 33t-33 92l34 9
q4 -36 23.5 -55.5t50.5 -19.5q59 0 91 71z" />
    <glyph glyph-name="ubreve" unicode="&#x16d;" 
d="M392 497l-114 -497h-78l8 39q-40 -49 -96 -49q-42 0 -69 24.5t-27 64.5q0 24 10 68l82 350h80l-81 -351q-5 -20 -5 -40q0 -24 13.5 -38t36.5 -14q30 0 48 18.5t28 62.5l84 362h80zM357 693l29 -20q-44 -116 -121 -116q-42 0 -68 34t-33 96l34 10q4 -38 22.5 -59.5
t48.5 -21.5q55 0 88 77z" />
    <glyph glyph-name="Uring" unicode="&#x16e;" horiz-adv-x="432" 
d="M496 706l-118 -510q-15 -66 -30.5 -102t-38.5 -58q-47 -47 -129 -47q-73 0 -112.5 31t-39.5 88q0 26 15 92l117 506h85l-126 -546q-4 -15 -4 -33q0 -63 72 -63q42 0 62 22q24 26 45 116l116 504h86zM428 834q0 -33 -24.5 -57t-57.5 -24q-32 0 -55.5 23.5t-23.5 57.5
q0 33 23.5 56.5t56.5 23.5t57 -23.5t24 -56.5zM384 834q0 16 -10.5 26.5t-26.5 10.5t-26 -10.5t-10 -27.5q0 -15 10.5 -25.5t25.5 -10.5t26 10.5t11 26.5z" />
    <glyph glyph-name="uring" unicode="&#x16f;" 
d="M392 497l-114 -497h-78l8 39q-40 -49 -96 -49q-42 0 -69 24.5t-27 64.5q0 24 10 68l82 350h80l-81 -351q-5 -20 -5 -40q0 -24 13.5 -38t36.5 -14q30 0 48 18.5t28 62.5l84 362h80zM351 628q0 -33 -24.5 -57t-57.5 -24t-56.5 23.5t-23.5 57.5q0 33 23.5 56.5t56.5 23.5
t57.5 -23.5t24.5 -56.5zM307 628q0 16 -10.5 26.5t-26.5 10.5t-26.5 -11t-10.5 -27q0 -15 10.5 -25.5t25.5 -10.5t26.5 11t11.5 26z" />
    <glyph glyph-name="Uhungarumlaut" unicode="&#x170;" horiz-adv-x="432" 
d="M496 706l-118 -510q-15 -66 -30.5 -102t-38.5 -58q-47 -47 -129 -47q-73 0 -112.5 31t-39.5 88q0 26 15 92l117 506h85l-126 -546q-4 -15 -4 -33q0 -63 72 -63q42 0 62 22q24 26 45 116l116 504h86zM544 871l-122 -107h-58l78 107h102zM409 871l-122 -107h-58l78 107h102
z" />
    <glyph glyph-name="uhungarumlaut" unicode="&#x171;" 
d="M392 497l-114 -497h-78l8 39q-40 -49 -96 -49q-42 0 -69 24.5t-27 64.5q0 24 10 68l82 350h80l-81 -351q-5 -20 -5 -40q0 -24 13.5 -38t36.5 -14q30 0 48 18.5t28 62.5l84 362h80zM482 671l-131 -107h-58l87 107h102zM347 671l-131 -107h-58l87 107h102z" />
    <glyph glyph-name="Uogonek" unicode="&#x172;" horiz-adv-x="432" 
d="M496 706l-118 -510q-25 -106 -55.5 -144.5t-94.5 -57.5q-31 -9 -52 -33.5t-21 -40.5q0 -20 38 -20h17l-11 -61h-37q-83 0 -83 46q0 40 60 107q-54 7 -82.5 37t-28.5 79q0 26 15 92l117 506h85l-126 -546q-4 -15 -4 -33q0 -63 72 -63q42 0 62 22q24 26 45 116l116 504h86z
" />
    <glyph glyph-name="uogonek" unicode="&#x173;" 
d="M108 497h80l-81 -351q-5 -20 -5 -40q0 -24 13.5 -38t36.5 -14q30 0 48 18.5t28 62.5l84 362h80l-114 -497h-12q-60 -57 -60 -80q0 -20 38 -20h17l-11 -61h-37q-83 0 -83 46q0 51 70 115l8 39q-40 -49 -96 -49q-42 0 -69 24.5t-27 64.5q0 24 10 68z" />
    <glyph glyph-name="Wcircumflex" unicode="&#x174;" horiz-adv-x="651" 
d="M757 706l-286 -706h-116l61 585l-218 -585h-118l52 706h87l-61 -633l228 633h113l-69 -633l241 633h86zM582 763h-79l-41 63l-66 -63h-78l119 107h65z" />
    <glyph glyph-name="wcircumflex" unicode="&#x175;" horiz-adv-x="521" 
d="M589 497l-212 -497h-96l31 421l-168 -421h-98l23 497h87l-45 -425l163 425h107l-30 -419l154 419h84zM457 563h-77l-36 63l-66 -63h-79l123 110h65z" />
    <glyph glyph-name="Ycircumflex" unicode="&#x176;" horiz-adv-x="388" 
d="M507 706l-262 -433l-62 -273h-87l63 275l-48 431h87l25 -344l187 344h97zM440 763h-79l-41 63l-66 -63h-78l119 107h65z" />
    <glyph glyph-name="ycircumflex" unicode="&#x177;" horiz-adv-x="315" 
d="M295 497h88l-224 -517q-38 -89 -74 -116q-37 -26 -91 -26q-20 0 -59 8l16 68q29 -8 45 -8q42 0 62 32q13 23 13 83q-2 439 -2 476h83l-14 -409zM360 563h-77l-36 63l-66 -63h-79l123 110h65z" />
    <glyph glyph-name="Ydieresis" unicode="&#x178;" horiz-adv-x="388" 
d="M507 706l-262 -433l-62 -273h-87l63 275l-48 431h87l25 -344l187 344h97zM469 871l-25 -107h-83l25 107h83zM296 871l-25 -107h-83l25 107h83z" />
    <glyph glyph-name="Zacute" unicode="&#x179;" horiz-adv-x="353" 
d="M444 706l-15 -67l-349 -561h234l-18 -78h-327l17 72l341 555h-194l18 79h293zM438 871l-123 -107h-64l78 107h109z" />
    <glyph glyph-name="zacute" unicode="&#x17a;" horiz-adv-x="292" 
d="M343 497l-16 -68l-262 -364h176l-15 -65h-266l15 65l260 364h-149l16 68h241zM376 671l-132 -107h-64l87 107h109z" />
    <glyph glyph-name="Zdotaccent" unicode="&#x17b;" horiz-adv-x="353" 
d="M444 706l-15 -67l-349 -561h234l-18 -78h-327l17 72l341 555h-194l18 79h293zM371 871l-25 -107h-83l25 107h83z" />
    <glyph glyph-name="zdotaccent" unicode="&#x17c;" horiz-adv-x="292" 
d="M343 497l-16 -68l-262 -364h176l-15 -65h-266l15 65l260 364h-149l16 68h241zM288 666l-24 -103h-78l24 103h78z" />
    <glyph glyph-name="Zcaron" unicode="&#x17d;" horiz-adv-x="353" 
d="M444 706l-15 -67l-349 -561h234l-18 -78h-327l17 72l341 555h-194l18 79h293zM369 871h78l-119 -107h-65l-80 107h78l42 -63z" />
    <glyph glyph-name="zcaron" unicode="&#x17e;" horiz-adv-x="292" 
d="M343 497l-16 -68l-262 -364h176l-15 -65h-266l15 65l260 364h-149l16 68h241zM375 673l-123 -110h-65l-69 110h76l37 -63l66 63h78z" />
    <glyph glyph-name="longs" unicode="&#x17f;" horiz-adv-x="201" 
d="M70 438l14 58h52l13 57q20 87 47 123t83 36q32 0 65 -11l-15 -65q-17 8 -40 8q-9 0 -14 -1.5t-14 -7.5t-16.5 -23t-13.5 -44l-130 -568h-79l101 438h-53z" />
    <glyph glyph-name="florin" unicode="&#x192;" horiz-adv-x="271" 
d="M341 714l-15 -70q-9 1 -19 1q-24 0 -34.5 -11.5t-21.5 -60.5l-17 -73h71l-15 -60h-69l-91 -404q-25 -110 -51.5 -144t-86.5 -34q-28 0 -49 5l15 68l5 -1q4 -1 13 -1q39 0 49 13.5t24 77.5l94 420h-61l14 60h61l25 113q13 58 37.5 81t72.5 23q12 0 49 -3z" />
    <glyph glyph-name="Aringacute" unicode="&#x1fa;" horiz-adv-x="365" 
d="M360 706l-54 -706h-87l10 132h-131l-52 -132h-92l286 706h120zM275 605l-144 -391h105zM439 998l-134 -109h-64l89 109h109zM372 809q0 -27 -18.5 -45t-44.5 -18q-25 0 -43.5 18t-18.5 45t18.5 45t44.5 18t44 -18t18 -45zM334 810q0 11 -7 18t-18 7q-10 0 -17 -7.5
t-7 -17.5q0 -11 7 -18.5t18 -7.5q10 0 17 7.5t7 18.5z" />
    <glyph glyph-name="aringacute" unicode="&#x1fb;" horiz-adv-x="347" 
d="M142 334h-73l1 10q10 92 46 127t113 35q123 0 123 -97q0 -20 -10 -64l-56 -239q-11 -51 -11 -73q0 -16 13 -33h-94l6 48q-41 -58 -100 -58q-46 0 -73.5 29.5t-27.5 78.5q0 63 31 103.5t96 71.5l37 18q63 31 100 62l5 20q4 18 4 28q0 42 -52 42q-37 0 -53 -20.5t-24 -80.5
zM222 170l24 105q-19 -15 -54 -35l-27 -15q-45 -25 -65 -49.5t-20 -66.5q0 -27 12.5 -42.5t34.5 -15.5q68 0 95 119zM375 810l-127 -107h-60l81 107h106zM320 616q0 -27 -20.5 -47.5t-48.5 -20.5t-47.5 20t-19.5 48q0 29 19.5 49t47.5 20q32 0 50.5 -20.5t18.5 -48.5z
M279 617q0 12 -8 20.5t-19 8.5q-12 0 -20 -9t-8 -20t8.5 -19.5t19.5 -8.5t19 8.5t8 19.5z" />
    <glyph glyph-name="AEacute" unicode="&#x1fc;" horiz-adv-x="599" 
d="M662 706l-18 -79h-184l-46 -210h176l-19 -78h-175l-57 -260h220l-19 -79h-306l37 155h-155l-88 -155h-92l416 706h310zM377 618l-217 -387h128zM625 871l-123 -107h-64l78 107h109z" />
    <glyph glyph-name="aeacute" unicode="&#x1fd;" horiz-adv-x="537" 
d="M513 234h-198l-15 -65q-9 -38 -9 -58q0 -54 52 -54q29 0 45.5 23t26.5 75h81q-17 -90 -53.5 -127t-108.5 -37q-81 0 -117 57q-43 -58 -114 -58q-48 0 -76 29t-28 79q0 71 41 117q27 30 86 58l37 18q63 31 100 62l5 20q4 18 4 28q0 42 -52 42q-37 0 -53 -20.5t-24 -80.5
l-1 -8h-73l1 10q9 82 45.5 122t111.5 40q60 0 97 -34q40 34 97 34q58 0 90 -27.5t32 -76.5q0 -34 -8 -67zM329 297h119l5 21q13 57 13 77q0 47 -49 47q-52 0 -67 -60zM248 277q-30 -23 -83 -52q-50 -27 -67.5 -53t-17.5 -63q0 -58 49 -58q69 0 97 128zM477 671l-132 -107
h-64l87 107h109z" />
    <glyph glyph-name="Oslashacute" unicode="&#x1fe;" horiz-adv-x="422" 
d="M503 680l-45 -61q4 -19 4 -38q0 -32 -11 -76l-81 -346q-21 -89 -62.5 -128t-121.5 -39q-111 0 -145 60l-37 -51l-31 24l51 70q-1 9 -1 22q0 31 12 82l81 346q20 88 66.5 129t123.5 41q89 0 134 -54l33 43zM373 570v10q0 29 -19 45t-53 16q-42 0 -63 -21.5t-37 -86.5
l-69 -288zM361 489l-245 -332q-3 -19 -3 -27q0 -31 18.5 -48.5t51.5 -17.5q40 0 63 23.5t37 78.5zM468 871l-123 -107h-64l78 107h109z" />
    <glyph glyph-name="oslashacute" unicode="&#x1ff;" horiz-adv-x="353" 
d="M390 465l-35 -41q3 -15 3 -27q0 -27 -7 -54l-50 -212q-18 -77 -54 -108.5t-102 -31.5q-79 0 -113 46l-28 -32l-27 24l41 49q-2 18 -2 21q0 29 10 70l44 192q17 76 54.5 109.5t105.5 33.5q74 0 110 -43l26 31zM278 387v4q0 51 -54 51q-28 0 -45.5 -18t-28.5 -66l-36 -167z
M264 315l-166 -198q-2 -10 -2 -20q0 -45 54 -45q30 0 46 18t26 64zM392 671l-132 -107h-64l87 107h109z" />
    <glyph glyph-name="Scommaaccent" unicode="&#x218;" horiz-adv-x="366" 
d="M409 493h-79l10 44q6 26 6 40q0 64 -62 64q-43 0 -66.5 -28t-23.5 -78q0 -26 7 -45t32 -58l69 -108q43 -68 43 -133q0 -93 -50.5 -146t-138.5 -53q-74 0 -116 36.5t-42 100.5q0 31 9 67l13 53h84l-8 -34q-13 -56 -13 -76q0 -74 80 -74q45 0 70.5 31t25.5 86q0 44 -34 97
l-77 120q-43 68 -43 125q0 89 49.5 139.5t135.5 50.5q137 0 137 -116q0 -24 -11 -73zM104 -29h71l-10 -43q-8 -35 -28.5 -53.5t-60.5 -24.5l6 26q33 9 38 34h-30z" />
    <glyph glyph-name="scommaaccent" unicode="&#x219;" horiz-adv-x="310" 
d="M321 346h-71q6 28 6 47q0 50 -52 50q-30 0 -46 -18t-16 -41q0 -17 8 -32.5t40 -52.5l48 -55q26 -30 35.5 -53t9.5 -54q0 -64 -42 -104.5t-108 -40.5q-61 0 -96.5 30t-35.5 81q0 27 12 75h76q-11 -41 -11 -64q0 -58 63 -58q31 0 48 19t17 53q0 19 -8 34t-31 42l-51 59
q-48 55 -48 107q0 61 39.5 98.5t103.5 37.5q55 0 86.5 -27t31.5 -74q0 -23 -8 -59zM82 -29h71l-10 -43q-8 -35 -28.5 -53.5t-60.5 -24.5l6 26q33 9 38 34h-30z" />
    <glyph glyph-name="uni021A" unicode="&#x21a;" horiz-adv-x="370" 
d="M471 706l-19 -79h-126l-145 -627h-87l145 627h-138l19 79h351zM96 -29h71l-10 -43q-8 -35 -28.5 -53.5t-60.5 -24.5l6 26q33 9 38 34h-30z" />
    <glyph glyph-name="uni021B" unicode="&#x21b;" horiz-adv-x="223" 
d="M288 496l-14 -60h-72l-71 -305q-6 -24 -6 -41q0 -14 9.5 -22.5t25.5 -8.5q10 0 26 4l-16 -65q-23 -7 -47 -7q-86 0 -86 75q0 18 4 33l79 337h-53l14 60h53l20 85l88 35l-28 -120h74zM49 -29h71l-10 -43q-8 -35 -28.5 -53.5t-60.5 -24.5l6 26q33 9 38 34h-30z" />
    <glyph glyph-name="circumflex" unicode="&#x2c6;" horiz-adv-x="208" 
d="M233 563h-77l-36 63l-66 -63h-79l123 110h65z" />
    <glyph glyph-name="caron" unicode="&#x2c7;" horiz-adv-x="208" 
d="M233 673l-123 -110h-65l-69 110h76l37 -63l66 63h78z" />
    <glyph glyph-name="uni02C9" unicode="&#x2c9;" horiz-adv-x="208" 
d="M207 575h-217l12 64h217z" />
    <glyph glyph-name="breve" unicode="&#x2d8;" horiz-adv-x="208" 
d="M186 693l29 -20q-44 -116 -121 -116q-42 0 -68 34t-33 96l34 10q4 -38 22.5 -59.5t48.5 -21.5q55 0 88 77z" />
    <glyph glyph-name="dotaccent" unicode="&#x2d9;" horiz-adv-x="208" 
d="M155 666l-24 -103h-78l24 103h78z" />
    <glyph glyph-name="ring" unicode="&#x2da;" horiz-adv-x="208" 
d="M185 628q0 -33 -24.5 -57t-57.5 -24t-56.5 23.5t-23.5 57.5q0 33 23.5 56.5t56.5 23.5t57.5 -23.5t24.5 -56.5zM141 628q0 16 -10.5 26.5t-26.5 10.5t-26.5 -11t-10.5 -27q0 -15 10.5 -25.5t25.5 -10.5t26.5 11t11.5 26z" />
    <glyph glyph-name="ogonek" unicode="&#x2db;" horiz-adv-x="208" 
d="M104 0h68q-60 -57 -60 -80q0 -20 38 -20h17l-11 -61h-37q-83 0 -83 46q0 42 68 115z" />
    <glyph glyph-name="tilde" unicode="&#x2dc;" horiz-adv-x="208" 
d="M197 658h37q-5 -41 -25 -65.5t-54 -24.5q-26 0 -65 19q-35 17 -44 17q-27 0 -35 -36h-37q5 42 28.5 67.5t58.5 25.5q20 0 53 -16l26 -13q16 -7 28 -7q22 0 29 33z" />
    <glyph glyph-name="hungarumlaut" unicode="&#x2dd;" horiz-adv-x="208" 
d="M266 671l-131 -107h-58l87 107h102zM131 671l-131 -107h-58l87 107h102z" />
    <glyph glyph-name="uni037E" unicode="&#x37e;" horiz-adv-x="208" 
d="M231 477l-27 -118h-86l27 118h86zM148 118l-26 -113q-16 -72 -40 -101t-75 -41l11 52q26 9 37 25.5t18 59.5h-37l26 118h86z" />
    <glyph glyph-name="tonos" unicode="&#x384;" horiz-adv-x="229" 
d="M208 671l-123 -108h-64l78 108h109z" />
    <glyph glyph-name="dieresistonos" unicode="&#x385;" horiz-adv-x="295" 
d="M282 563h-78l24 103h78zM67 563h-78l24 103h78zM240 702l-105 -139h-54l65 139h94z" />
    <glyph glyph-name="Alphatonos" unicode="&#x386;" horiz-adv-x="365" 
d="M360 706l-54 -706h-87l10 132h-131l-52 -132h-92l286 706h120zM275 605l-144 -391h105zM200 706l-123 -108h-64l78 108h109z" />
    <glyph glyph-name="anoteleia" unicode="&#x387;" horiz-adv-x="167" 
d="M165 382h-85l27 118h85z" />
    <glyph glyph-name="Epsilontonos" unicode="&#x388;" 
d="M455 706l-18 -79h-206l-48 -210h192l-19 -80h-192l-59 -258h225l-19 -79h-310l163 706h291zM130 706l-123 -108h-64l78 108h109z" />
    <glyph glyph-name="Etatonos" unicode="&#x389;" horiz-adv-x="433" 
d="M494 706l-163 -706h-85l73 328h-157l-75 -328h-86l163 706h85l-70 -301h157l73 301h85zM130 706l-123 -108h-64l78 108h109z" />
    <glyph glyph-name="Iotatonos" unicode="&#x38a;" horiz-adv-x="188" 
d="M249 706l-162 -706h-86l163 706h85zM120 706l-123 -108h-64l78 108h109z" />
    <glyph glyph-name="Omicrontonos" unicode="&#x38c;" horiz-adv-x="422" 
d="M451 505l-81 -346q-21 -90 -63 -128.5t-121 -38.5q-78 0 -120.5 33t-42.5 92q0 31 12 82l81 346q20 88 66.5 129t123.5 41q73 0 114.5 -34t41.5 -94q0 -34 -11 -82zM281 165l82 344q11 47 11 66q0 66 -73 66q-41 0 -62.5 -22t-36.5 -86l-81 -348q-8 -34 -8 -56
q0 -65 74 -65q38 0 59.5 23.5t34.5 77.5zM150 706l-123 -108h-64l78 108h109z" />
    <glyph glyph-name="Upsilontonos" unicode="&#x38e;" horiz-adv-x="388" 
d="M507 706l-262 -433l-62 -273h-87l63 275l-48 431h87l25 -344l187 344h97zM95 706l-123 -108h-64l78 108h109z" />
    <glyph glyph-name="Omegatonos" unicode="&#x38f;" horiz-adv-x="426" 
d="M71 343l49 202q21 88 67 129t123 41q73 0 114.5 -34t41.5 -94q0 -34 -11 -82l-42 -176q-10 -44 -15 -63t-18 -58.5t-25.5 -60t-33.5 -41t-46 -27.5h88l-18 -79h-157l20 87q42 27 63.5 70t49.5 160l46 192q11 47 11 66q0 66 -73 66q-41 0 -62.5 -22t-36.5 -86l-50 -216
q-24 -107 -24 -150q0 -50 33 -80l-20 -87h-146l18 79h89q-60 19 -60 99q0 63 25 165zM150 706l-123 -108h-64l78 108h109z" />
    <glyph glyph-name="iotadieresistonos" unicode="&#x390;" horiz-adv-x="171" 
d="M91 -1q-45 0 -62.5 14t-17.5 42q0 24 10 64l90 378h81l-90 -387q-5 -23 -5 -32q0 -12 4 -15t17 -3h4l-13 -60q-10 -1 -18 -1zM332 563h-78l24 103h78zM117 563h-78l24 103h78zM290 702l-105 -139h-54l65 139h94z" />
    <glyph glyph-name="Alpha" unicode="&#x391;" horiz-adv-x="365" 
d="M360 706l-54 -706h-87l10 132h-131l-52 -132h-92l286 706h120zM275 605l-144 -391h105z" />
    <glyph glyph-name="Beta" unicode="&#x392;" horiz-adv-x="413" 
d="M164 706h119q95 0 131.5 -32t36.5 -109q0 -82 -38 -128.5t-105 -55.5q19 -4 33 -10t29 -18t22.5 -33.5t7.5 -52.5q0 -44 -13.5 -95t-35.5 -88q-26 -45 -75.5 -64.5t-152.5 -19.5h-122zM231 626l-49 -210h75q50 0 79 38t29 105t-69 67h-65zM164 339l-59 -263h55
q85 0 114 42q16 25 28 67t12 77q0 34 -17 52t-36.5 21.5t-52.5 3.5h-44z" />
    <glyph glyph-name="Gamma" unicode="&#x393;" horiz-adv-x="345" 
d="M452 706l-18 -79h-203l-144 -627h-86l163 706h288z" />
    <glyph glyph-name="uni0394" unicode="&#x394;" horiz-adv-x="428" 
d="M375 0h-428l332 706h90zM76 79h213l9 508z" />
    <glyph glyph-name="Epsilon" unicode="&#x395;" 
d="M455 706l-18 -79h-206l-48 -210h192l-19 -80h-192l-59 -258h225l-19 -79h-310l163 706h291z" />
    <glyph glyph-name="Zeta" unicode="&#x396;" horiz-adv-x="353" 
d="M444 706l-15 -67l-349 -561h234l-18 -78h-327l17 72l341 555h-194l18 79h293z" />
    <glyph glyph-name="Eta" unicode="&#x397;" horiz-adv-x="433" 
d="M494 706l-163 -706h-85l73 328h-157l-75 -328h-86l163 706h85l-70 -301h157l73 301h85z" />
    <glyph glyph-name="Theta" unicode="&#x398;" horiz-adv-x="422" 
d="M175 337l19 80h129l-19 -80h-129zM451 505l-81 -346q-21 -90 -63 -128.5t-121 -38.5q-78 0 -120.5 33t-42.5 92q0 31 12 82l81 346q20 88 66.5 129t123.5 41q73 0 114.5 -34t41.5 -94q0 -34 -11 -82zM281 165l82 344q11 47 11 66q0 66 -73 66q-41 0 -62.5 -22t-36.5 -86
l-81 -348q-8 -34 -8 -56q0 -65 74 -65q38 0 59.5 23.5t34.5 77.5z" />
    <glyph glyph-name="Iota" unicode="&#x399;" horiz-adv-x="188" 
d="M249 706l-162 -706h-86l163 706h85z" />
    <glyph glyph-name="Kappa" unicode="&#x39a;" horiz-adv-x="386" 
d="M492 706l-252 -340l113 -366h-87l-102 340l-78 -340h-85l163 706h85l-72 -306l223 306h92z" />
    <glyph glyph-name="Lambda" unicode="&#x39b;" horiz-adv-x="355" 
d="M263 587l-217 -587h-92l276 706h120l-64 -706h-87z" />
    <glyph glyph-name="Mu" unicode="&#x39c;" horiz-adv-x="564" 
d="M626 706l-163 -706h-79l157 639l-255 -639h-105l39 639l-137 -639h-82l163 706h129l-43 -630l246 630h130z" />
    <glyph glyph-name="Nu" unicode="&#x39d;" horiz-adv-x="440" 
d="M502 706l-164 -706h-120q2 596 2 639l-136 -639h-83l164 706h118l2 -640l135 640h82z" />
    <glyph glyph-name="Xi" unicode="&#x39e;" horiz-adv-x="397" 
d="M95 332l21 90h261l-21 -90h-261zM-6 0l20 89h321l-20 -89h-321zM440 617h-307l20 89h307z" />
    <glyph glyph-name="Omicron" unicode="&#x39f;" horiz-adv-x="422" 
d="M451 505l-81 -346q-21 -90 -63 -128.5t-121 -38.5q-78 0 -120.5 33t-42.5 92q0 31 12 82l81 346q20 88 66.5 129t123.5 41q73 0 114.5 -34t41.5 -94q0 -34 -11 -82zM281 165l82 344q11 47 11 66q0 66 -73 66q-41 0 -62.5 -22t-36.5 -86l-81 -348q-8 -34 -8 -56
q0 -65 74 -65q38 0 59.5 23.5t34.5 77.5z" />
    <glyph glyph-name="Pi" unicode="&#x3a0;" horiz-adv-x="423" 
d="M484 706l-163 -706h-85l145 629h-150l-144 -629h-86l163 706h320z" />
    <glyph glyph-name="Rho" unicode="&#x3a1;" horiz-adv-x="402" 
d="M164 706h114q81 0 113 -12q64 -25 64 -116q0 -53 -14 -111t-36 -95q-47 -81 -183 -81h-69l-67 -291h-85zM231 626l-60 -258h47q54 0 79.5 10t38.5 34q10 18 21 63.5t11 73.5q0 44 -20 60.5t-75 16.5h-42z" />
    <glyph glyph-name="Sigma" unicode="&#x3a3;" horiz-adv-x="375" 
d="M191 379l-63 260l15 67h301l-18 -79h-202l60 -248l-198 -301h236l-18 -78h-331l16 72z" />
    <glyph glyph-name="Tau" unicode="&#x3a4;" horiz-adv-x="370" 
d="M471 706l-19 -79h-126l-145 -627h-87l145 627h-138l19 79h351z" />
    <glyph glyph-name="Upsilon" unicode="&#x3a5;" horiz-adv-x="388" 
d="M507 706l-262 -433l-62 -273h-87l63 275l-48 431h87l25 -344l187 344h97z" />
    <glyph glyph-name="Phi" unicode="&#x3a6;" horiz-adv-x="503" 
d="M257 50l-12 -50h-87l12 50q-64 4 -96 42t-32 96q0 30 7 57l53 228q39 171 207 182l12 51h87l-12 -51q63 -4 96 -42t33 -97q0 -21 -7 -54l-55 -230q-20 -83 -64.5 -130.5t-141.5 -51.5zM188 463l-50 -217q-8 -36 -8 -54q0 -61 56 -69l106 458q-79 -9 -104 -118zM377 246
l50 218q8 37 8 49q0 62 -56 68l-106 -458q47 6 69.5 39.5t34.5 83.5z" />
    <glyph glyph-name="Chi" unicode="&#x3a7;" horiz-adv-x="389" 
d="M481 706l-203 -340l60 -366h-88l-41 295l-166 -295h-97l231 377l-50 329h87l31 -261l142 261h94z" />
    <glyph glyph-name="Psi" unicode="&#x3a8;" horiz-adv-x="521" 
d="M412 353l81 353h89l-82 -357q-20 -87 -64 -133t-144 -49l-39 -167h-87l39 167q-130 12 -130 127q0 29 8 64l80 348h89l-81 -353q-7 -30 -7 -52q0 -58 57 -61l108 466h87l-108 -466q78 3 104 113z" />
    <glyph glyph-name="uni03A9" unicode="&#x3a9;" horiz-adv-x="470" 
d="M399 77l-19 -77h-167l20 78q41 23 63 77q19 48 51 187l38 161q12 49 12 77q0 33 -20 51.5t-56 18.5q-38 0 -61 -23t-39 -92l-37 -160q-21 -90 -27 -125t-6 -76q0 -57 27 -96l-19 -78h-160l18 77h98q-37 53 -37 135q0 67 24 178l34 154q21 93 67.5 131.5t132.5 38.5
q68 0 107.5 -33.5t39.5 -91.5q0 -30 -11 -78l-34 -152q-26 -117 -52 -179.5t-78 -102.5h91z" />
    <glyph glyph-name="Iotadieresis" unicode="&#x3aa;" horiz-adv-x="188" 
d="M249 706l-162 -706h-86l163 706h85zM370 871l-25 -107h-83l25 107h83zM197 871l-25 -107h-83l25 107h83z" />
    <glyph glyph-name="Upsilondieresis" unicode="&#x3ab;" horiz-adv-x="388" 
d="M507 706l-262 -433l-62 -273h-87l63 275l-48 431h87l25 -344l187 344h97zM469 871l-25 -107h-83l25 107h83zM296 871l-25 -107h-83l25 107h83z" />
    <glyph glyph-name="alphatonos" unicode="&#x3ac;" horiz-adv-x="375" 
d="M231 158l39 168q10 42 10 56q0 27 -15 42.5t-41 15.5q-58 0 -77 -87l-44 -195q-7 -29 -7 -52q0 -25 13 -39t36 -14q62 0 86 105zM117 -10q-43 0 -71.5 27t-28.5 68q0 26 11 75l43 187q19 81 55 119.5t93 38.5q59 0 90 -56l11 48h75l-88 -387q-5 -23 -5 -32q0 -12 4 -15
t17 -3h4l-13 -60q-10 -1 -18 -1q-39 0 -56 11t-23 36q-34 -56 -100 -56zM420 671l-123 -108h-64l78 108h109z" />
    <glyph glyph-name="epsilontonos" unicode="&#x3ad;" horiz-adv-x="348" 
d="M236 298l-14 -61q-68 -2 -91 -17t-35 -65l-4 -23q-2 -11 -2 -29q0 -46 52 -46q36 0 51.5 29t30.5 106h82q-8 -40 -14.5 -65t-19.5 -54t-30 -44.5t-44.5 -26.5t-63.5 -11q-49 0 -87.5 22.5t-38.5 74.5q0 28 4 45l7 34q18 80 98 107q-19 5 -32 24t-13 44q0 17 4 31l6 25
q15 62 51 84.5t103 22.5q57 0 86.5 -23t29.5 -65q0 -27 -8 -73h-77q8 42 8 61q0 40 -49 40q-31 0 -44 -10.5t-19 -33.5l-9 -35q-5 -20 -5 -30q0 -21 19 -28.5t68 -9.5zM402 671l-123 -108h-64l78 108h109z" />
    <glyph glyph-name="etatonos" unicode="&#x3ae;" horiz-adv-x="373" 
d="M69 433l15 63q15 7 35 7q61 0 61 -53q38 56 101 56q42 0 68.5 -24.5t26.5 -63.5q0 -26 -10 -69l-117 -508h-80l116 509q6 24 6 40q0 24 -13.5 38t-36.5 14q-30 0 -48.5 -19t-28.5 -62l-83 -361h-80l90 392q4 17 4 27q0 9 -4.5 11.5t-17.5 2.5h-4zM415 671l-123 -108h-64
l78 108h109z" />
    <glyph glyph-name="iotatonos" unicode="&#x3af;" horiz-adv-x="171" 
d="M91 -1q-45 0 -62.5 14t-17.5 42q0 24 10 64l90 378h81l-90 -387q-5 -23 -5 -32q0 -12 4 -15t17 -3h4l-13 -60q-10 -1 -18 -1zM310 671l-123 -108h-64l78 108h109z" />
    <glyph glyph-name="upsilondieresistonos" unicode="&#x3b0;" horiz-adv-x="365" 
d="M389 497l-72 -312q-9 -38 -14.5 -58t-19.5 -50.5t-31 -46t-46 -27.5t-68 -12q-121 0 -121 107q0 23 7 56l81 343h80l-74 -317q-11 -48 -11 -72q0 -55 50 -55q20 0 33.5 8.5t24.5 32t16.5 44t16.5 66.5l68 293h80zM410 563h-78l24 103h78zM195 563h-78l24 103h78zM368 702
l-105 -139h-54l65 139h94z" />
    <glyph glyph-name="alpha" unicode="&#x3b1;" horiz-adv-x="375" 
d="M231 158l39 168q10 42 10 56q0 27 -15 42.5t-41 15.5q-58 0 -77 -87l-44 -195q-7 -29 -7 -52q0 -25 13 -39t36 -14q62 0 86 105zM117 -10q-43 0 -71.5 27t-28.5 68q0 26 11 75l43 187q19 81 55 119.5t93 38.5q59 0 90 -56l11 48h75l-88 -387q-5 -23 -5 -32q0 -12 4 -15
t17 -3h4l-13 -60q-10 -1 -18 -1q-39 0 -56 11t-23 36q-34 -56 -100 -56z" />
    <glyph glyph-name="beta" unicode="&#x3b2;" horiz-adv-x="372" 
d="M223 444h9q35 0 51 14t26 62l9 43q5 20 5 37q0 48 -45 48q-25 0 -41 -14.5t-21 -29.5t-12 -43l-87 -376q-11 -46 -11 -70q0 -30 15 -46.5t41 -16.5q39 0 56 36q13 25 28 91l16 67q11 48 11 70q0 56 -52 56h-15zM-41 -159l166 718q7 29 10.5 42.5t16 39.5t27.5 39t43 24
t65 11q60 0 86 -30.5t26 -78.5q0 -22 -5 -47l-8 -38q-6 -31 -18 -52.5t-29.5 -32.5t-28 -15t-30.5 -9q72 -22 72 -96q0 -23 -6 -47l-23 -98q-23 -96 -49 -132q-38 -52 -101 -52q-59 0 -88 52l-45 -198h-81z" />
    <glyph glyph-name="gamma" unicode="&#x3b3;" horiz-adv-x="316" 
d="M31 -159l39 168q3 373 3 402q0 18 -14 18h-9l16 68h42q26 0 37.5 -10.5t11.5 -39.5l-21 -333l163 383h86l-235 -493l-37 -163h-82z" />
    <glyph glyph-name="delta" unicode="&#x3b4;" horiz-adv-x="354" 
d="M342 307l-40 -176q-18 -77 -54.5 -108.5t-102.5 -31.5q-62 0 -95 27t-33 78q0 29 10 73l25 109q8 36 14 57.5t17.5 48t25 41t35.5 26.5t50 15q-56 36 -56 99t38 106.5t109 43.5q50 0 82 -23t32 -65q0 -25 -5 -46l-6 -29h-72l4 17q4 19 4 36q0 20 -12.5 31.5t-34.5 11.5
q-21 0 -41 -18.5t-20 -53.5q0 -26 17.5 -48.5t50.5 -48t37 -29.5q32 -32 32 -70q0 -29 -11 -73zM222 134l43 188q6 28 6 45q0 19 -12.5 32t-36.5 13q-36 0 -52.5 -26t-29.5 -87l-34 -154q-7 -33 -7 -46q0 -46 53 -46q29 0 44.5 18t25.5 63z" />
    <glyph glyph-name="epsilon" unicode="&#x3b5;" horiz-adv-x="348" 
d="M236 298l-14 -61q-68 -2 -91 -17t-35 -65l-4 -23q-2 -11 -2 -29q0 -46 52 -46q36 0 51.5 29t30.5 106h82q-8 -40 -14.5 -65t-19.5 -54t-30 -44.5t-44.5 -26.5t-63.5 -11q-49 0 -87.5 22.5t-38.5 74.5q0 28 4 45l7 34q18 80 98 107q-19 5 -32 24t-13 44q0 17 4 31l6 25
q15 62 51 84.5t103 22.5q57 0 86.5 -23t29.5 -65q0 -27 -8 -73h-77q8 42 8 61q0 40 -49 40q-31 0 -44 -10.5t-19 -33.5l-9 -35q-5 -20 -5 -30q0 -21 19 -28.5t68 -9.5z" />
    <glyph glyph-name="zeta" unicode="&#x3b6;" horiz-adv-x="285" 
d="M234 -122h-77q21 84 21 98t-10 19t-34 5q-50 0 -83 28.5t-33 75.5q0 12 4 32l18 78q26 113 106 224t180 199h-159l16 69h252l-13 -58q-259 -234 -305 -448l-16 -72q-2 -12 -2 -17q0 -45 67 -45q92 0 92 -64q0 -34 -24 -124z" />
    <glyph glyph-name="eta" unicode="&#x3b7;" horiz-adv-x="373" 
d="M69 433l15 63q15 7 35 7q61 0 61 -53q38 56 101 56q42 0 68.5 -24.5t26.5 -63.5q0 -26 -10 -69l-117 -508h-80l116 509q6 24 6 40q0 24 -13.5 38t-36.5 14q-30 0 -48.5 -19t-28.5 -62l-83 -361h-80l90 392q4 17 4 27q0 9 -4.5 11.5t-17.5 2.5h-4z" />
    <glyph glyph-name="theta" unicode="&#x3b8;" horiz-adv-x="354" 
d="M27 169l91 402q17 76 53.5 110t102.5 34q129 0 129 -109q0 -15 -8 -53l-96 -422q-18 -77 -54.5 -108.5t-102.5 -31.5q-125 0 -125 105q0 29 10 73zM219 134l49 216h-115l-47 -205q-7 -33 -7 -46q0 -46 50 -46q29 0 44.5 18t25.5 63zM199 567l-33 -157h115l33 148
q6 27 6 43q0 50 -52 50q-29 0 -43.5 -17t-25.5 -67z" />
    <glyph glyph-name="iota" unicode="&#x3b9;" horiz-adv-x="171" 
d="M91 -1q-45 0 -62.5 14t-17.5 42q0 24 10 64l90 378h81l-90 -387q-5 -23 -5 -32q0 -12 4 -15t17 -3h4l-13 -60q-10 -1 -18 -1z" />
    <glyph glyph-name="kappa" unicode="&#x3ba;" horiz-adv-x="352" 
d="M330 389l-80 -83l63 -306h-85l-43 239l-73 -77l-37 -162h-79l115 497h80l-50 -219l146 163q31 35 49 45.5t42 10.5h28l-16 -68q-17 0 -25 -5t-35 -35z" />
    <glyph glyph-name="lambda" unicode="&#x3bb;" horiz-adv-x="348" 
d="M35 0h-85l255 489q1 63 1 95q0 64 -41 64q-9 0 -33 -6l16 66q21 7 41 7q51 0 70.5 -30t19.5 -67q0 -19 -1 -258.5t-1 -261.5q0 -39 17 -39q13 0 27 4l-16 -65q-21 -7 -38 -7q-31 0 -48 12.5t-21 27.5t-4 36l9 271z" />
    <glyph glyph-name="uni03BC" unicode="&#x3bc;" horiz-adv-x="385" 
d="M401 497l-89 -391q-11 -46 -11 -73q0 -16 13 -33h-96l5 46q-33 -50 -76 -50t-56 37l-43 -193h-81l150 657h80l-79 -344q-5 -25 -5 -40q0 -23 13.5 -37t36.5 -14q37 0 58 31q10 15 18 50l82 354h80z" />
    <glyph glyph-name="nu" unicode="&#x3bd;" horiz-adv-x="314" 
d="M346 405l-188 -405h-91q4 464 4 497h86l-24 -407l137 330q6 14 9 28q4 24 4 39v10h81v-10q0 -18 -5 -41q-9 -32 -13 -41z" />
    <glyph glyph-name="xi" unicode="&#x3be;" horiz-adv-x="296" 
d="M271 351q-65 -2 -98.5 -20.5t-44.5 -64.5l-32 -139q-2 -7 -2 -18q0 -43 66 -43q92 0 92 -64q0 -34 -24 -124h-77q21 84 21 98t-10 19t-34 5q-49 0 -81 25.5t-32 74.5q0 19 4 35l34 154q10 48 37.5 70t72.5 30q-49 17 -49 69q0 12 3 25l21 92q11 49 61 66h-61l15 65h268
l-15 -67h-96q-33 0 -59 -18.5t-33 -47.5l-21 -93q-2 -10 -2 -15q0 -47 99 -47h22l-16 -68q-7 1 -29 1z" />
    <glyph glyph-name="omicron" unicode="&#x3bf;" horiz-adv-x="354" 
d="M351 343l-49 -212q-18 -77 -54.5 -108.5t-102.5 -31.5q-62 0 -95 27t-33 78q0 29 10 73l44 192q17 76 54.5 110t104.5 34q129 0 129 -109q0 -15 -8 -53zM222 134l48 215q6 27 6 42q0 50 -52 50q-29 0 -45 -17t-27 -67l-46 -212q-7 -33 -7 -46q0 -46 53 -46q29 0 44.5 18
t25.5 63z" />
    <glyph glyph-name="pi" unicode="&#x3c0;" horiz-adv-x="402" 
d="M435 496l-14 -67h-33l-75 -320q-5 -24 -5 -29q0 -19 27 -19h6l-14 -61q-10 -1 -24 -1q-41 0 -59 14.5t-18 46.5q0 15 7 45l75 324h-122l-100 -429h-79l98 429h-31l15 67h346z" />
    <glyph glyph-name="rho" unicode="&#x3c1;" horiz-adv-x="354" 
d="M80 42l-46 -201h-82l119 520q17 76 54.5 110t104.5 34q129 0 129 -109q0 -15 -8 -53l-37 -159q-23 -100 -43 -133q-36 -60 -112 -60q-58 0 -79 51zM145 51q17 0 31 8.5t21.5 18t14.5 28.5t9.5 27.5t6.5 27.5l42 188q6 27 6 42q0 50 -52 50q-30 0 -46.5 -17.5t-27.5 -66.5
l-45 -203q-5 -25 -5 -43q0 -27 11.5 -43.5t33.5 -16.5z" />
    <glyph glyph-name="sigma1" unicode="&#x3c2;" horiz-adv-x="344" 
d="M22 135l45 206q20 93 58 129t105 36q59 0 90.5 -25.5t31.5 -74.5q0 -13 -10 -70l-3 -17h-75l4 18q9 37 9 60q0 49 -48 49q-33 0 -50 -20.5t-31 -84.5l-49 -214q-2 -8 -2 -16q0 -45 47 -45q53 0 73.5 -16.5t20.5 -47.5q0 -29 -24 -124h-77q21 85 21 98q0 9 -1.5 13.5
t-8 7.5t-20.5 3q-54 0 -82 27.5t-28 72.5q0 19 4 35z" />
    <glyph glyph-name="sigma" unicode="&#x3c3;" horiz-adv-x="358" 
d="M222 134l46 207q7 30 7 46q0 44 -45 44q-36 0 -55 -28t-31 -85l-38 -173q-7 -33 -7 -46q0 -46 53 -46q29 0 44.5 18t25.5 63zM345 317l-43 -186q-18 -77 -54.5 -108.5t-102.5 -31.5q-62 0 -95 27t-33 78q0 29 10 73l30 133q23 103 57.5 149t114.5 46h174l-16 -68h-71
q37 -18 37 -59q0 -15 -8 -53z" />
    <glyph glyph-name="tau" unicode="&#x3c4;" horiz-adv-x="244" 
d="M49 99l76 330h-39q-18 0 -46 -8l16 67q21 7 53 9h197l-16 -68h-83l-68 -298q-6 -24 -6 -41q0 -14 9.5 -22.5t25.5 -8.5q10 0 26 4l-16 -65q-23 -7 -47 -7q-86 0 -86 75q0 18 4 33z" />
    <glyph glyph-name="upsilon" unicode="&#x3c5;" horiz-adv-x="365" 
d="M389 497l-72 -312q-9 -38 -14.5 -58t-19.5 -50.5t-31 -46t-46 -27.5t-68 -12q-121 0 -121 107q0 23 7 56l81 343h80l-74 -317q-11 -48 -11 -72q0 -55 50 -55q20 0 33.5 8.5t24.5 32t16.5 44t16.5 66.5l68 293h80z" />
    <glyph glyph-name="phi" unicode="&#x3c6;" horiz-adv-x="503" 
d="M176 50l92 392q-52 -7 -80.5 -32.5t-43.5 -86.5l-39 -160q-8 -35 -8 -55q0 -56 79 -58zM282 504l17 76l88 36l-24 -112q145 -3 145 -114q0 -30 -9 -71l-38 -168q-22 -96 -69 -126.5t-148 -32.5l-35 -151h-81l35 151q-74 2 -110 28.5t-36 82.5q0 34 10 75l36 152
q21 92 72.5 132t146.5 42zM349 442l-92 -392q55 5 84.5 30.5t43.5 89.5l33 151q8 37 8 59q0 61 -77 62z" />
    <glyph glyph-name="chi" unicode="&#x3c7;" horiz-adv-x="323" 
d="M244 -99q13 0 27 4l-16 -65q-21 -7 -38 -7q-44 0 -58 20.5t-15 55.5l-8 206l-139 -274h-87l201 352l-19 221q-3 23 -17 23q-9 0 -19 -2l14 61q19 7 40 7q64 0 64 -59v-170l112 223h90l-177 -304l27 -264q3 -28 18 -28z" />
    <glyph glyph-name="psi" unicode="&#x3c8;" horiz-adv-x="515" 
d="M387 616l-130 -565q56 7 87 41t46 100l71 305h80l-69 -301q-24 -104 -75 -152.5t-153 -53.5l-35 -149h-81l35 151q-145 6 -145 127q0 26 13 84l70 294h81l-66 -275q-17 -71 -17 -103q0 -34 18 -49t59 -19l123 530z" />
    <glyph glyph-name="omega" unicode="&#x3c9;" horiz-adv-x="511" 
d="M332 355l-46 -205q-6 -25 -6 -46q0 -51 44 -51q35 0 55 85l46 200q8 37 8 52q0 25 -11.5 32t-45.5 9l15 66h16q109 0 109 -101q0 -20 -10 -68l-44 -196q-8 -33 -16 -54.5t-23.5 -43.5t-42 -33t-63.5 -11q-73 0 -85 69q-26 -69 -106 -69q-53 0 -81 26t-28 76q0 26 10 71
l39 170q13 57 30 92t41 50t42.5 18.5t51.5 3.5h26l-15 -66q-44 0 -60.5 -15.5t-30.5 -77.5l-46 -200q-5 -25 -5 -40q0 -45 35 -45q32 0 46.5 28t30.5 101l40 173h80z" />
    <glyph glyph-name="iotadieresis" unicode="&#x3ca;" horiz-adv-x="171" 
d="M91 -1q-45 0 -62.5 14t-17.5 42q0 24 10 64l90 378h81l-90 -387q-5 -23 -5 -32q0 -12 4 -15t17 -3h4l-13 -60q-10 -1 -18 -1zM300 666l-24 -103h-77l24 103h77zM150 666l-23 -103h-79l23 103h79z" />
    <glyph glyph-name="upsilondieresis" unicode="&#x3cb;" horiz-adv-x="365" 
d="M389 497l-72 -312q-9 -38 -14.5 -58t-19.5 -50.5t-31 -46t-46 -27.5t-68 -12q-121 0 -121 107q0 23 7 56l81 343h80l-74 -317q-11 -48 -11 -72q0 -55 50 -55q20 0 33.5 8.5t24.5 32t16.5 44t16.5 66.5l68 293h80zM398 666l-24 -103h-77l24 103h77zM248 666l-23 -103h-79
l23 103h79z" />
    <glyph glyph-name="omicrontonos" unicode="&#x3cc;" horiz-adv-x="354" 
d="M351 343l-49 -212q-18 -77 -54.5 -108.5t-102.5 -31.5q-62 0 -95 27t-33 78q0 29 10 73l44 192q17 76 54.5 110t104.5 34q129 0 129 -109q0 -15 -8 -53zM222 134l48 215q6 27 6 42q0 50 -52 50q-29 0 -45 -17t-27 -67l-46 -212q-7 -33 -7 -46q0 -46 53 -46q29 0 44.5 18
t25.5 63zM400 671l-123 -108h-64l78 108h109z" />
    <glyph glyph-name="upsilontonos" unicode="&#x3cd;" horiz-adv-x="365" 
d="M389 497l-72 -312q-9 -38 -14.5 -58t-19.5 -50.5t-31 -46t-46 -27.5t-68 -12q-121 0 -121 107q0 23 7 56l81 343h80l-74 -317q-11 -48 -11 -72q0 -55 50 -55q20 0 33.5 8.5t24.5 32t16.5 44t16.5 66.5l68 293h80zM407 671l-123 -108h-64l78 108h109z" />
    <glyph glyph-name="omegatonos" unicode="&#x3ce;" horiz-adv-x="511" 
d="M332 355l-46 -205q-6 -25 -6 -46q0 -51 44 -51q35 0 55 85l46 200q8 37 8 52q0 25 -11.5 32t-45.5 9l15 66h16q109 0 109 -101q0 -20 -10 -68l-44 -196q-8 -33 -16 -54.5t-23.5 -43.5t-42 -33t-63.5 -11q-73 0 -85 69q-26 -69 -106 -69q-53 0 -81 26t-28 76q0 26 10 71
l39 170q13 57 30 92t41 50t42.5 18.5t51.5 3.5h26l-15 -66q-44 0 -60.5 -15.5t-30.5 -77.5l-46 -200q-5 -25 -5 -40q0 -45 35 -45q32 0 46.5 28t30.5 101l40 173h80zM483 671l-123 -108h-64l78 108h109z" />
    <glyph glyph-name="afii10023" unicode="&#x401;" 
d="M455 706l-18 -79h-206l-48 -210h192l-19 -80h-192l-59 -258h225l-19 -79h-310l163 706h291zM474 871l-25 -107h-83l25 107h83zM301 871l-25 -107h-83l25 107h83z" />
    <glyph glyph-name="afii10051" unicode="&#x402;" horiz-adv-x="452" 
d="M240 69q42 0 59 24.5t32 94.5l15 69q9 40 9 57q0 47 -54 47q-42 0 -80 -22l-78 -339h-87l145 627h-100l19 79h321l-19 -79h-134l-49 -211q42 22 104 22q47 0 75 -22.5t28 -63.5q0 -17 -15 -95l-17 -81q-18 -86 -38 -120q-36 -65 -133 -65q-35 0 -68 9l24 73q17 -4 41 -4z
" />
    <glyph glyph-name="afii10052" unicode="&#x403;" horiz-adv-x="355" 
d="M462 706l-18 -79h-213l-144 -627h-86l163 706h298zM444 871l-123 -107h-64l78 107h109z" />
    <glyph glyph-name="afii10053" unicode="&#x404;" horiz-adv-x="392" 
d="M340 405l-17 -77h-173l-33 -151q-6 -27 -6 -45q0 -68 69 -68q45 0 65 26t40 106l13 52h82l-9 -36q-15 -62 -28.5 -97.5t-36 -67t-56.5 -44.5t-84 -13q-68 0 -106 35t-38 97q0 32 9 72l66 284q30 132 80 185.5t140 53.5q63 0 99 -28.5t36 -78.5q0 -37 -11 -79l-11 -46h-82
l9 36q10 37 10 66q0 27 -16 42t-45 15q-53 0 -79 -43.5t-45 -128.5l-15 -67h173z" />
    <glyph glyph-name="afii10054" unicode="&#x405;" horiz-adv-x="366" 
d="M409 493h-79l10 44q6 26 6 40q0 64 -62 64q-43 0 -66.5 -28t-23.5 -78q0 -26 7 -45t32 -58l69 -108q43 -68 43 -133q0 -93 -50.5 -146t-138.5 -53q-74 0 -116 36.5t-42 100.5q0 31 9 67l13 53h84l-8 -34q-13 -56 -13 -76q0 -74 80 -74q45 0 70.5 31t25.5 86q0 44 -34 97
l-77 120q-43 68 -43 125q0 89 49.5 139.5t135.5 50.5q137 0 137 -116q0 -24 -11 -73z" />
    <glyph glyph-name="afii10055" unicode="&#x406;" horiz-adv-x="188" 
d="M249 706l-162 -706h-86l163 706h85z" />
    <glyph glyph-name="afii10056" unicode="&#x407;" horiz-adv-x="188" 
d="M249 706l-162 -706h-86l163 706h85zM345 871l-25 -107h-83l25 107h83zM222 871l-25 -107h-83l25 107h83z" />
    <glyph glyph-name="afii10057" unicode="&#x408;" horiz-adv-x="271" 
d="M335 706l-120 -530q-20 -90 -38 -120q-36 -65 -133 -65q-48 0 -93 17l24 74q33 -13 66 -13q41 0 58 24t33 95l116 518h87z" />
    <glyph glyph-name="afii10058" unicode="&#x409;" horiz-adv-x="646" 
d="M493 706l-67 -291h29q81 0 113 -12q64 -25 64 -116q0 -53 -14 -111t-36 -95q-46 -81 -183 -81h-154l145 629h-133l-103 -445q-25 -111 -57.5 -147.5t-109.5 -36.5h-30l18 78h4q39 0 57 21.5t30 73.5l123 533h304zM408 335l-60 -258h47q54 0 79.5 10t38.5 34
q10 18 21 63.5t11 73.5q0 44 -20 60.5t-75 16.5h-42z" />
    <glyph glyph-name="afii10059" unicode="&#x40a;" horiz-adv-x="646" 
d="M494 706l-68 -295h29q81 0 113 -12q64 -25 64 -116q0 -53 -13.5 -109t-35.5 -93q-47 -81 -183 -81h-154l74 334h-157l-76 -334h-86l163 706h85l-69 -295h157l72 295h85zM409 334l-60 -257h47q54 0 79.5 10t38.5 34q10 18 21 63t11 73q0 44 -20 60.5t-75 16.5h-42z" />
    <glyph glyph-name="afii10060" unicode="&#x40b;" horiz-adv-x="453" 
d="M441 706l-19 -79h-134l-49 -211q42 22 104 22q48 0 76 -22.5t28 -63.5q0 -24 -7 -52l-69 -300h-85l65 280q4 16 4 34q0 47 -54 47q-42 0 -80 -22l-78 -339h-87l145 627h-100l19 79h321z" />
    <glyph glyph-name="afii10061" unicode="&#x40c;" horiz-adv-x="415" 
d="M164 706h85l-69 -295h50q40 0 57 18t31 76l23 91q15 60 40 85t77 25h30l-18 -79h-4q-20 0 -29 -10.5t-17 -46.5l-16 -70q-15 -65 -30.5 -90t-50.5 -35q42 -15 42 -70q0 -20 -9 -63l-15 -67q-13 -61 -13 -73q0 -23 23 -23h4l-18 -79h-21q-77 0 -79 68q0 27 8 62l20 92
q8 35 8 55q0 57 -56 57h-54l-76 -334h-86zM453 871l-123 -107h-64l78 107h109z" />
    <glyph glyph-name="afii10062" unicode="&#x40e;" horiz-adv-x="362" 
d="M210 290l175 416h96l-256 -583q-34 -77 -66.5 -100t-101.5 -23h-43l18 79h20q35 0 53 10.5t31 43.5l-29 573h87zM291 743q-103 0 -103 81q0 16 2 25h71q-1 -4 -1 -11q0 -36 45 -36q49 0 60 47h71q-9 -47 -46 -76.5t-99 -29.5z" />
    <glyph glyph-name="afii10145" unicode="&#x40f;" horiz-adv-x="432" 
d="M0 0l163 706h85l-144 -629h159l145 629h85l-163 -706h-123l-32 -140h-85l32 140h-122z" />
    <glyph glyph-name="afii10017" unicode="&#x410;" horiz-adv-x="365" 
d="M360 706l-54 -706h-87l10 132h-131l-52 -132h-92l286 706h120zM275 605l-144 -391h105z" />
    <glyph glyph-name="afii10018" unicode="&#x411;" horiz-adv-x="412" 
d="M452 706l-18 -79h-203l-50 -212h30q81 0 113 -12q64 -25 64 -116q0 -53 -14 -111t-36 -95q-46 -81 -183 -81h-154l163 706h288zM164 335l-60 -258h47q54 0 79.5 10t38.5 34q10 18 21 63.5t11 73.5q0 44 -20 60.5t-75 16.5h-42z" />
    <glyph glyph-name="afii10019" unicode="&#x412;" horiz-adv-x="413" 
d="M164 706h119q95 0 131.5 -32t36.5 -109q0 -82 -38 -128.5t-105 -55.5q19 -4 33 -10t29 -18t22.5 -33.5t7.5 -52.5q0 -44 -13.5 -95t-35.5 -88q-26 -45 -75.5 -64.5t-152.5 -19.5h-122zM231 626l-49 -210h75q50 0 79 38t29 105t-69 67h-65zM164 339l-59 -263h55
q85 0 114 42q16 25 28 67t12 77q0 34 -17 52t-36.5 21.5t-52.5 3.5h-44z" />
    <glyph glyph-name="afii10020" unicode="&#x413;" horiz-adv-x="355" 
d="M462 706l-18 -79h-213l-144 -627h-86l163 706h298z" />
    <glyph glyph-name="afii10021" unicode="&#x414;" horiz-adv-x="466" 
d="M-80 -140l50 217q82 0 134 224l94 405h304l-145 -629h65l-50 -217h-85l32 140h-282l-32 -140h-85zM271 77l127 552h-132l-75 -331q-17 -73 -33 -120t-24.5 -62t-23.5 -34l-4 -5h165z" />
    <glyph glyph-name="afii10022" unicode="&#x415;" 
d="M455 706l-18 -79h-206l-48 -210h192l-19 -80h-192l-59 -258h225l-19 -79h-310l163 706h291z" />
    <glyph glyph-name="afii10024" unicode="&#x416;" horiz-adv-x="635" 
d="M383 706h86l-68 -295h49q40 0 57 18t31 76l23 91q15 60 40 85t77 25h30l-18 -79h-4q-20 0 -29 -10.5t-17 -46.5l-16 -70q-15 -65 -30.5 -90t-50.5 -35q42 -15 42 -70q0 -20 -9 -63l-15 -67q-13 -61 -13 -73q0 -23 23 -23h4l-18 -79h-21q-77 0 -79 68q0 27 8 62l20 92
q8 35 8 55q0 57 -56 57h-54l-76 -334h-86l77 333h-61q-40 0 -57 -18t-31 -76l-32 -129q-15 -60 -40 -85t-77 -25h-30l18 79h4q20 0 29 10.5t17 46.5l27 113q14 61 35 87.5t58 37.5q-31 24 -31 70q0 24 7 58l7 29q13 61 13 73q0 23 -23 23h-4l18 79h21q77 0 79 -68
q0 -27 -8 -62l-12 -54q-8 -35 -8 -55q0 -57 56 -57h43z" />
    <glyph glyph-name="afii10025" unicode="&#x417;" horiz-adv-x="400" 
d="M440 581q0 -23 -5 -50q-25 -135 -130 -160q67 -20 67 -105q0 -21 -4.5 -50t-19.5 -70t-38 -75t-65.5 -58t-97.5 -24q-63 0 -100 29t-37 78q0 37 11 79l18 74h82l-16 -64q-10 -37 -10 -66q0 -27 17 -42t46 -15q46 0 70.5 30.5t42.5 90.5q14 48 14 82q0 32 -17.5 48
t-64.5 16h-74l17 77h73q101 0 126 114q6 28 6 49q0 73 -64 73q-43 0 -67 -27.5t-43 -104.5l-6 -26h-82l2 10q15 62 28.5 97.5t36 67t56.5 44.5t84 13q68 0 106 -35.5t38 -99.5z" />
    <glyph glyph-name="afii10026" unicode="&#x418;" horiz-adv-x="443" 
d="M504 706l-163 -706h-85l106 460l-256 -379l-19 -81h-86l163 706h85l-103 -448l256 378l17 70h85z" />
    <glyph glyph-name="afii10027" unicode="&#x419;" horiz-adv-x="443" 
d="M504 706l-163 -706h-85l106 460l-256 -379l-19 -81h-86l163 706h85l-103 -448l256 378l17 70h85zM334 743q-103 0 -103 81q0 16 2 25h71q-1 -4 -1 -11q0 -36 45 -36q49 0 60 47h71q-9 -47 -46 -76.5t-99 -29.5z" />
    <glyph glyph-name="afii10028" unicode="&#x41a;" horiz-adv-x="415" 
d="M164 706h85l-69 -295h50q40 0 57 18t31 76l23 91q15 60 40 85t77 25h30l-18 -79h-4q-20 0 -29 -10.5t-17 -46.5l-16 -70q-15 -65 -30.5 -90t-50.5 -35q42 -15 42 -70q0 -20 -9 -63l-15 -67q-13 -61 -13 -73q0 -23 23 -23h4l-18 -79h-21q-77 0 -79 68q0 27 8 62l20 92
q8 35 8 55q0 57 -56 57h-54l-76 -334h-86z" />
    <glyph glyph-name="afii10029" unicode="&#x41b;" horiz-adv-x="432" 
d="M493 706l-162 -706h-86l144 629h-132l-103 -445q-25 -111 -57.5 -147.5t-109.5 -36.5h-30l18 78h4q39 0 57 21.5t30 73.5l123 533h304z" />
    <glyph glyph-name="afii10030" unicode="&#x41c;" horiz-adv-x="564" 
d="M626 706l-163 -706h-79l157 639l-255 -639h-105l39 639l-137 -639h-82l163 706h129l-43 -630l246 630h130z" />
    <glyph glyph-name="afii10031" unicode="&#x41d;" horiz-adv-x="433" 
d="M494 706l-163 -706h-85l73 328h-157l-75 -328h-86l163 706h85l-70 -301h157l73 301h85z" />
    <glyph glyph-name="afii10032" unicode="&#x41e;" horiz-adv-x="422" 
d="M451 505l-81 -346q-21 -90 -63 -128.5t-121 -38.5q-78 0 -120.5 33t-42.5 92q0 31 12 82l81 346q20 88 66.5 129t123.5 41q73 0 114.5 -34t41.5 -94q0 -34 -11 -82zM281 165l82 344q11 47 11 66q0 66 -73 66q-41 0 -62.5 -22t-36.5 -86l-81 -348q-8 -34 -8 -56
q0 -65 74 -65q38 0 59.5 23.5t34.5 77.5z" />
    <glyph glyph-name="afii10033" unicode="&#x41f;" horiz-adv-x="433" 
d="M494 706l-163 -706h-85l144 629h-159l-144 -629h-86l163 706h330z" />
    <glyph glyph-name="afii10034" unicode="&#x420;" horiz-adv-x="402" 
d="M164 706h114q81 0 113 -12q64 -25 64 -116q0 -53 -14 -111t-36 -95q-47 -81 -183 -81h-69l-67 -291h-85zM231 626l-60 -258h47q54 0 79.5 10t38.5 34q10 18 21 63.5t11 73.5q0 44 -20 60.5t-75 16.5h-42z" />
    <glyph glyph-name="afii10035" unicode="&#x421;" horiz-adv-x="392" 
d="M430 485h-82l9 36q10 37 10 66q0 27 -16 42t-45 15q-53 0 -79 -43.5t-45 -128.5l-65 -295q-6 -27 -6 -45q0 -68 69 -68q45 0 65 26t40 106l13 52h82l-9 -36q-15 -62 -28.5 -97.5t-36 -67t-56.5 -44.5t-84 -13q-68 0 -106 35t-38 97q0 32 9 72l66 284q30 132 80 185.5
t140 53.5q63 0 99 -28.5t36 -78.5q0 -37 -11 -79z" />
    <glyph glyph-name="afii10036" unicode="&#x422;" horiz-adv-x="370" 
d="M471 706l-19 -79h-126l-145 -627h-87l145 627h-138l19 79h351z" />
    <glyph glyph-name="afii10037" unicode="&#x423;" horiz-adv-x="362" 
d="M210 290l175 416h96l-256 -583q-34 -77 -66.5 -100t-101.5 -23h-43l18 79h20q35 0 53 10.5t31 43.5l-29 573h87z" />
    <glyph glyph-name="afii10038" unicode="&#x424;" horiz-adv-x="588" 
d="M449 720l-26 -114h31q73 0 114.5 -34t41.5 -94q0 -34 -11 -82l-28 -122q-20 -90 -62 -129t-121 -39h-80l-27 -116h-86l27 116h-30q-73 0 -114.5 34t-41.5 94q0 34 11 82l28 122q20 90 62 129t121 39h80l26 114h85zM453 528h-48l-79 -345h63q38 0 59.5 23.5t34.5 77.5
l27 112q11 47 11 66q0 31 -17.5 48.5t-50.5 17.5zM125 249q0 -31 17.5 -48.5t50.5 -17.5h47l80 346h-63q-38 0 -59.5 -23.5t-34.5 -77.5l-27 -113q-11 -47 -11 -66z" />
    <glyph glyph-name="afii10039" unicode="&#x425;" horiz-adv-x="389" 
d="M481 706l-203 -340l60 -366h-88l-41 295l-166 -295h-97l231 377l-50 329h87l31 -261l142 261h94z" />
    <glyph glyph-name="afii10040" unicode="&#x426;" horiz-adv-x="458" 
d="M1 0l163 706h85l-144 -629h159l145 629h85l-145 -629h64l-50 -217h-85l32 140h-309z" />
    <glyph glyph-name="afii10041" unicode="&#x427;" horiz-adv-x="399" 
d="M297 0h-85l74 321q-42 -22 -105 -22q-48 0 -76 22.5t-28 63.5q0 24 7 52l62 269h85l-56 -239q-6 -26 -6 -44q0 -47 54 -47q42 0 80 22l72 308h85z" />
    <glyph glyph-name="afii10042" unicode="&#x428;" horiz-adv-x="586" 
d="M0 0l163 706h85l-144 -629h113l145 629h85l-145 -629h115l145 629h85l-162 -706h-485z" />
    <glyph glyph-name="afii10043" unicode="&#x429;" horiz-adv-x="611" 
d="M0 0l163 706h85l-144 -629h113l145 629h85l-145 -629h115l145 629h85l-145 -629h64l-50 -217h-85l32 140h-463z" />
    <glyph glyph-name="afii10044" unicode="&#x42a;" horiz-adv-x="471" 
d="M98 706h221l-69 -291h30q81 0 113 -12q64 -25 64 -116q0 -53 -14 -111t-36 -95q-47 -81 -183 -81h-154l145 627h-135zM233 335l-60 -258h47q54 0 79.5 10t38.5 34q10 18 21 63.5t11 73.5q0 44 -20 60.5t-75 16.5h-42z" />
    <glyph glyph-name="afii10045" unicode="&#x42b;" horiz-adv-x="591" 
d="M249 706l-68 -291h30q81 0 113 -12q64 -25 64 -116q0 -53 -14 -111t-36 -95q-46 -81 -183 -81h-154l163 706h85zM164 335l-60 -258h47q54 0 79.5 10t38.5 34q10 18 21 63.5t11 73.5q0 44 -20 60.5t-75 16.5h-42zM652 706l-162 -706h-86l163 706h85z" />
    <glyph glyph-name="afii10046" unicode="&#x42c;" horiz-adv-x="402" 
d="M249 706l-68 -291h30q81 0 113 -12q64 -25 64 -116q0 -53 -14 -111t-36 -95q-46 -81 -183 -81h-154l163 706h85zM164 335l-60 -258h47q54 0 79.5 10t38.5 34q10 18 21 63.5t11 73.5q0 44 -20 60.5t-75 16.5h-42z" />
    <glyph glyph-name="afii10047" unicode="&#x42d;" horiz-adv-x="400" 
d="M129 329l17 77h173l26 123q6 27 6 45q0 68 -69 68q-42 0 -64 -27t-41 -105l-6 -26h-82l2 10q15 62 28.5 97.5t36 67t56.5 44.5t84 13q68 0 106 -35t38 -97q0 -32 -9 -72l-66 -284q-30 -132 -80 -185.5t-140 -53.5q-63 0 -99 28.5t-36 78.5q0 37 11 79l18 74h82l-16 -64
q-10 -37 -10 -66q0 -27 16 -42t45 -15q53 0 79 43.5t45 128.5l22 95h-173z" />
    <glyph glyph-name="afii10048" unicode="&#x42e;" horiz-adv-x="621" 
d="M650 505l-81 -346q-21 -90 -63 -128.5t-121 -38.5q-78 0 -120.5 33t-42.5 92q0 31 12 82l30 129h-102l-75 -328h-86l163 706h85l-70 -301h103l33 140q20 88 66.5 129t123.5 41q73 0 114.5 -34t41.5 -94q0 -34 -11 -82zM480 165l82 344q11 47 11 66q0 66 -73 66
q-41 0 -62.5 -22t-36.5 -86l-81 -348q-8 -34 -8 -56q0 -65 74 -65q38 0 59.5 23.5t34.5 77.5z" />
    <glyph glyph-name="afii10049" unicode="&#x42f;" horiz-adv-x="436" 
d="M247 0l72 310h-97q-35 0 -50.5 -19t-29.5 -75l-25 -106q-14 -59 -39.5 -84.5t-77.5 -25.5h-30l18 79h4q20 0 29 10.5t17 46.5l19 87q13 60 33.5 86.5t57.5 37.5q-48 15 -48 79q0 29 12 79l9 37q22 91 65.5 127.5t130.5 36.5h180l-163 -706h-87zM335 379l57 247h-70
q-56 0 -81.5 -19.5t-38.5 -74.5l-6 -25q-9 -33 -9 -62q0 -39 17.5 -52.5t68.5 -13.5h62z" />
    <glyph glyph-name="afii10065" unicode="&#x430;" horiz-adv-x="347" 
d="M142 334h-73l1 10q10 92 46 127t113 35q123 0 123 -97q0 -20 -10 -64l-56 -239q-11 -51 -11 -73q0 -16 13 -33h-94l6 48q-41 -58 -100 -58q-46 0 -73.5 29.5t-27.5 78.5q0 63 31 103.5t96 71.5l37 18q63 31 100 62l5 20q4 18 4 28q0 42 -52 42q-37 0 -53 -20.5t-24 -80.5
zM222 170l24 105q-19 -15 -54 -35l-27 -15q-45 -25 -65 -49.5t-20 -66.5q0 -27 12.5 -42.5t34.5 -15.5q68 0 95 119z" />
    <glyph glyph-name="afii10066" unicode="&#x431;" horiz-adv-x="354" 
d="M351 343l-49 -212q-18 -77 -54.5 -108.5t-102.5 -31.5q-62 0 -95 27t-33 78q0 29 10 73l40 176q13 59 23.5 95t27 73t38 60.5t53 45.5t76.5 41q23 10 35 20t13 26h82q-3 -34 -20.5 -58t-34.5 -34t-53 -26q-70 -32 -101.5 -59t-41.5 -68q38 44 96 44q99 0 99 -104
q0 -20 -8 -58zM222 134l48 215q6 27 6 42q0 50 -52 50q-29 0 -45 -17t-27 -67l-46 -212q-7 -33 -7 -46q0 -46 53 -46q29 0 44.5 18t25.5 63z" />
    <glyph glyph-name="afii10067" unicode="&#x432;" horiz-adv-x="339" 
d="M110 497h117q65 0 91 -25.5t26 -72.5q0 -55 -25 -89.5t-65 -44.5q57 -14 57 -84q0 -181 -186 -181h-129zM129 232l-40 -172h40q107 0 107 118q0 54 -71 54h-36zM176 437l-34 -147h43q85 0 85 100q0 47 -48 47h-46z" />
    <glyph glyph-name="afii10068" unicode="&#x433;" horiz-adv-x="270" 
d="M109 497h224l-14 -60h-143l-100 -437h-80z" />
    <glyph glyph-name="afii10069" unicode="&#x434;" horiz-adv-x="396" 
d="M263 0h-229l-32 -138h-80l46 198q18 0 36.5 13.5t42 59.5t40.5 121l54 243h263l-100 -437h53l-46 -198h-80zM208 437l-42 -184q-19 -84 -35 -127.5t-39 -65.5h132l87 377h-103z" />
    <glyph glyph-name="afii10070" unicode="&#x435;" horiz-adv-x="344" 
d="M321 233h-199l-15 -65q-9 -43 -9 -58q0 -53 52 -53q30 0 46.5 22t26.5 75h81q-17 -77 -42 -112q-37 -51 -120 -51q-125 0 -125 107q0 26 11 72l42 182q20 86 51 115q40 38 110 38q54 0 87 -27.5t33 -73.5q0 -37 -19 -121zM137 297h120l11 54q6 29 6 46q0 48 -49 48
q-36 0 -54 -29q-11 -18 -29 -98z" />
    <glyph glyph-name="afii10072" unicode="&#x436;" horiz-adv-x="557" 
d="M324 228l-53 -228h-79l52 228h-42q-30 0 -47.5 -14.5t-27.5 -55.5l-18 -73q-21 -85 -94 -85h-38l14 60h4q17 0 25 9.5t14 35.5l14 58q11 47 27.5 67t48.5 28q-36 11 -36 50q0 7 7 42l5 24q5 25 5 37q0 26 -27 26l14 60h14q39 0 61 -19.5t22 -52.5q0 -12 -3 -24l-9 -44
q-4 -20 -4 -29q0 -21 10.5 -30.5t35.5 -9.5h39l48 209h79l-48 -209h38q30 0 48 14.5t27 55.5l13 54q21 85 94 85h38l-14 -60h-4q-17 0 -25 -9.5t-14 -35.5l-9 -39q-12 -50 -24.5 -69t-42.5 -26q36 -11 36 -50q0 -13 -10 -56l-7 -29q-5 -25 -5 -37q0 -26 27 -26l-14 -60h-14
q-39 0 -61 19t-22 52q0 11 3 25l9 39q9 43 9 53q0 21 -10.5 30.5t-35.5 9.5h-43z" />
    <glyph glyph-name="afii10073" unicode="&#x437;" horiz-adv-x="347" 
d="M26 176h75l-5 -26q-6 -32 -6 -51q0 -49 54 -49q37 0 63 31.5t26 94.5q0 53 -56 53h-75l14 60h72q82 0 82 103q0 24 -13.5 37t-36.5 13q-31 0 -48 -22.5t-30 -73.5l-3 -12h-78l3 12q22 89 59.5 124.5t105.5 35.5q57 0 90 -28t33 -77q0 -54 -25 -90.5t-70 -46.5
q26 -6 41 -28.5t15 -52.5q0 -94 -48.5 -143.5t-123.5 -49.5q-60 0 -93 26t-33 74q0 27 6 60z" />
    <glyph glyph-name="afii10074" unicode="&#x438;" horiz-adv-x="376" 
d="M76 0h-80l113 497h80l-69 -304l190 255l11 49h80l-113 -497h-80l69 308l-189 -256z" />
    <glyph glyph-name="afii10075" unicode="&#x439;" horiz-adv-x="376" 
d="M76 0h-80l113 497h80l-69 -304l190 255l11 49h80l-113 -497h-80l69 308l-189 -256zM266 570q-50 0 -74 22t-24 59q0 7 2 21h67v-10q0 -36 38 -36q23 0 35.5 10.5t17.5 35.5h68q-20 -102 -130 -102z" />
    <glyph glyph-name="afii10076" unicode="&#x43a;" horiz-adv-x="361" 
d="M110 497h79l-47 -204h38q30 0 47.5 14.5t27.5 55.5l12 49q21 85 94 85h38l-14 -60h-4q-17 0 -25 -9.5t-14 -35.5l-8 -34q-12 -50 -24.5 -69t-42.5 -26q36 -11 36 -50q0 -15 -10 -55l-8 -35q-5 -25 -5 -37q0 -26 27 -26l-14 -60h-14q-39 0 -61 19t-22 52q0 11 3 25l10 44
q9 43 9 53q0 21 -10.5 30.5t-35.5 9.5h-43l-54 -233h-79z" />
    <glyph glyph-name="afii10077" unicode="&#x43b;" horiz-adv-x="385" 
d="M410 497l-113 -497h-80l100 437h-103q-25 -110 -40 -172.5t-33 -118t-31.5 -79.5t-35.5 -42t-43 -21.5t-57 -3.5h-14l15 65h9q36 0 55 31q26 41 73 249q10 42 35 152h263z" />
    <glyph glyph-name="afii10078" unicode="&#x43c;" horiz-adv-x="477" 
d="M387 0h-74l106 409l-176 -409h-105l18 409q-76 -367 -83 -409h-77l114 498h112l-21 -445l187 445h114z" />
    <glyph glyph-name="afii10079" unicode="&#x43d;" 
d="M313 497h80l-113 -497h-80l52 229h-124l-52 -229h-80l113 497h80l-48 -208h124z" />
    <glyph glyph-name="afii10080" unicode="&#x43e;" horiz-adv-x="354" 
d="M351 343l-49 -212q-18 -77 -54.5 -108.5t-102.5 -31.5q-62 0 -95 27t-33 78q0 29 10 73l44 192q17 76 54.5 110t104.5 34q129 0 129 -109q0 -15 -8 -53zM222 134l48 215q6 27 6 42q0 50 -52 50q-29 0 -45 -17t-27 -67l-46 -212q-7 -33 -7 -46q0 -46 53 -46q29 0 44.5 18
t25.5 63z" />
    <glyph glyph-name="afii10081" unicode="&#x43f;" horiz-adv-x="363" 
d="M109 497h279l-113 -497h-80l100 437h-119l-100 -437h-80z" />
    <glyph glyph-name="afii10082" unicode="&#x440;" horiz-adv-x="367" 
d="M110 497h75l-11 -47q44 54 101 54q44 0 70.5 -28t26.5 -74q0 -25 -18 -101l-31 -130q-23 -96 -49 -132q-38 -52 -101 -52q-59 0 -88 52l-45 -198h-81zM245 179l29 120q16 69 16 86q0 25 -13 39t-36 14q-65 0 -93 -121l-31 -132q-11 -46 -11 -70q0 -30 15 -46.5t41 -16.5
q39 0 56 36q11 21 27 91z" />
    <glyph glyph-name="afii10083" unicode="&#x441;" horiz-adv-x="346" 
d="M341 319h-75l4 18q9 37 9 60q0 49 -48 49q-33 0 -49.5 -20t-31.5 -85l-34 -147q-16 -71 -16 -93t13.5 -34.5t36.5 -12.5q37 0 55.5 31t30.5 101h78q-20 -110 -59 -153t-113 -43q-57 0 -90.5 27.5t-33.5 73.5q0 27 17 102l34 148q21 93 58.5 129t104.5 36q59 0 90.5 -25.5
t31.5 -74.5q0 -13 -10 -70z" />
    <glyph glyph-name="afii10084" unicode="&#x442;" horiz-adv-x="273" 
d="M65 497h271l-14 -60h-95l-100 -437h-80l99 437h-95z" />
    <glyph glyph-name="afii10085" unicode="&#x443;" horiz-adv-x="315" 
d="M295 497h88l-224 -517q-38 -89 -74 -116q-37 -26 -91 -26q-20 0 -59 8l16 68q29 -8 45 -8q42 0 62 32q13 23 13 83q-2 439 -2 476h83l-14 -409z" />
    <glyph glyph-name="afii10086" unicode="&#x444;" horiz-adv-x="502" 
d="M280 500l47 206h81l-47 -206h18q62 0 95 -27t33 -78q0 -29 -10 -73l-40 -177q-17 -76 -54.5 -110.5t-103.5 -34.5h-54l-37 -159h-80l37 159h-20q-62 0 -95 27t-33 78q0 29 10 73l40 177q17 76 54.5 110.5t103.5 34.5h55zM148 62h31l85 373h-45q-29 0 -44.5 -17t-27.5 -67
l-45 -197q-7 -33 -7 -46q0 -46 53 -46zM375 435h-30l-86 -373h45q29 0 44.5 17t27.5 67l45 197q7 33 7 46q0 46 -53 46z" />
    <glyph glyph-name="afii10087" unicode="&#x445;" horiz-adv-x="333" 
d="M388 497l-164 -231l59 -266h-85l-33 197l-121 -197h-92l186 266l-46 231h88l18 -162l98 162h92z" />
    <glyph glyph-name="afii10088" unicode="&#x446;" horiz-adv-x="380" 
d="M289 60h52l-46 -198h-80l32 138h-251l113 497h80l-100 -437h119l100 437h80z" />
    <glyph glyph-name="afii10089" unicode="&#x447;" horiz-adv-x="329" 
d="M177 497l-39 -168q-3 -15 -3 -26q0 -28 37 -28q23 0 54 14l48 208h80l-113 -497h-80l50 222q-42 -16 -84 -16q-77 0 -77 65q0 20 7 49l41 177h79z" />
    <glyph glyph-name="afii10090" unicode="&#x448;" horiz-adv-x="498" 
d="M256 60h87l100 437h80l-113 -497h-414l113 497h80l-100 -437h87l100 437h80z" />
    <glyph glyph-name="afii10091" unicode="&#x449;" horiz-adv-x="515" 
d="M256 60h87l100 437h80l-99 -437h52l-46 -198h-80l32 138h-386l113 497h80l-100 -437h87l100 437h80z" />
    <glyph glyph-name="afii10092" unicode="&#x44a;" horiz-adv-x="367" 
d="M235 497l-43 -189h23q58 0 84 -9q47 -19 47 -86q0 -90 -37 -153q-35 -60 -136 -60h-131l99 436h-92l14 61h172zM178 248l-43 -188h27q39 0 58 7t28 25q7 13 15 46t8 54q0 32 -14.5 44t-54.5 12h-24z" />
    <glyph glyph-name="afii10093" unicode="&#x44b;" horiz-adv-x="477" 
d="M189 497l-43 -189h23q58 0 84 -9q47 -19 47 -86q0 -90 -37 -153q-35 -60 -136 -60h-131l113 497h80zM132 248l-43 -188h27q39 0 58 7t28 25q7 13 15 46t8 54q0 32 -14.5 44t-54.5 12h-24zM502 497l-115 -497h-80l114 497h81z" />
    <glyph glyph-name="afii10094" unicode="&#x44c;" horiz-adv-x="321" 
d="M189 497l-43 -189h23q58 0 84 -9q47 -19 47 -86q0 -90 -37 -153q-35 -60 -136 -60h-131l113 497h80zM132 248l-43 -188h27q39 0 58 7t28 25q7 13 15 46t8 54q0 32 -14.5 44t-54.5 12h-24z" />
    <glyph glyph-name="afii10095" unicode="&#x44d;" horiz-adv-x="346" 
d="M101 229l14 60h135l3 13q16 71 16 93t-13.5 34.5t-36.5 12.5q-31 0 -48 -22.5t-30 -73.5l-3 -12h-78l3 12q22 89 59 124.5t105 35.5q57 0 90.5 -27.5t33.5 -73.5q0 -27 -17 -102l-34 -148q-21 -93 -58.5 -129t-104.5 -36q-59 0 -90.5 25.5t-31.5 74.5q0 22 7 60l5 26h75
l-6 -30q-6 -36 -6 -47q0 -49 48 -49q33 0 50 20.5t31 84.5l17 74h-135z" />
    <glyph glyph-name="afii10096" unicode="&#x44e;" horiz-adv-x="512" 
d="M509 343l-49 -212q-18 -77 -54.5 -108.5t-102.5 -31.5q-62 0 -95 27t-33 78q0 29 10 73l13 60h-70l-52 -229h-80l113 497h80l-48 -208h71l17 72q17 76 54.5 110t104.5 34q129 0 129 -109q0 -15 -8 -53zM380 134l48 215q6 27 6 42q0 50 -52 50q-29 0 -45 -17t-27 -67
l-46 -212q-7 -33 -7 -46q0 -46 53 -46q29 0 44.5 18t25.5 63z" />
    <glyph glyph-name="afii10097" unicode="&#x44f;" horiz-adv-x="360" 
d="M385 497l-115 -497h-80l51 219h-42q-30 0 -48 -14.5t-27 -55.5l-15 -64q-19 -85 -94 -85h-38l14 60h4q17 0 25 9.5t14 35.5l11 49q11 47 27.5 67t48.5 28q-35 17 -35 61q0 13 7 50l6 31q22 106 133 106h153zM255 279l36 158h-41q-35 0 -50 -13.5t-23 -41.5l-6 -23
q-6 -30 -6 -37q0 -25 14.5 -34t51.5 -9h24z" />
    <glyph glyph-name="afii10071" unicode="&#x451;" horiz-adv-x="344" 
d="M321 233h-199l-15 -65q-9 -43 -9 -58q0 -53 52 -53q30 0 46.5 22t26.5 75h81q-17 -77 -42 -112q-37 -51 -120 -51q-125 0 -125 107q0 26 11 72l42 182q20 86 51 115q40 38 110 38q54 0 87 -27.5t33 -73.5q0 -37 -19 -121zM137 297h120l11 54q6 29 6 46q0 48 -49 48
q-36 0 -54 -29q-11 -18 -29 -98zM379 666l-24 -103h-77l24 103h77zM229 666l-23 -103h-79l23 103h79z" />
    <glyph glyph-name="afii10099" unicode="&#x452;" 
d="M326 635l-14 -60h-104l-27 -118q40 49 94 49q43 0 69.5 -24.5t26.5 -63.5q0 -26 -10 -69l-84 -360q-8 -37 -13.5 -56t-16.5 -42.5t-25 -34t-36.5 -18t-54.5 -7.5q-17 0 -57 4l16 66q31 -3 44 -3q28 0 39 16.5t27 85.5l80 350q6 24 6 40q0 24 -13.5 38t-36.5 14
q-31 0 -49 -19.5t-28 -61.5l-83 -361h-80l132 575h-53l14 60h52l17 71h80l-17 -71h105z" />
    <glyph glyph-name="afii10100" unicode="&#x453;" horiz-adv-x="270" 
d="M109 497h224l-14 -60h-143l-100 -437h-80zM359 671l-132 -107h-64l87 107h109z" />
    <glyph glyph-name="afii10101" unicode="&#x454;" horiz-adv-x="346" 
d="M273 289l-14 -60h-135l-8 -35q-16 -71 -16 -93t13.5 -34.5t36.5 -12.5q32 0 49 23t29 73l6 26h78l-6 -26q-21 -89 -58.5 -124.5t-105.5 -35.5q-57 0 -90.5 27.5t-33.5 73.5q0 27 17 102l34 148q21 93 58.5 129t104.5 36q59 0 90.5 -25.5t31.5 -74.5q0 -20 -7 -60l-3 -17
h-75l4 21q6 30 6 47q0 49 -48 49q-33 0 -49.5 -20t-31.5 -85l-12 -52h135z" />
    <glyph glyph-name="afii10102" unicode="&#x455;" horiz-adv-x="310" 
d="M321 346h-71q6 28 6 47q0 50 -52 50q-30 0 -46 -18t-16 -41q0 -17 8 -32.5t40 -52.5l48 -55q26 -30 35.5 -53t9.5 -54q0 -64 -42 -104.5t-108 -40.5q-61 0 -96.5 30t-35.5 81q0 27 12 75h76q-11 -41 -11 -64q0 -58 63 -58q31 0 48 19t17 53q0 19 -8 34t-31 42l-51 59
q-48 55 -48 107q0 61 39.5 98.5t103.5 37.5q55 0 86.5 -27t31.5 -74q0 -23 -8 -59z" />
    <glyph glyph-name="afii10103" unicode="&#x456;" horiz-adv-x="165" 
d="M234 691l-24 -103h-80l24 103h80zM191 497l-115 -497h-80l114 497h81z" />
    <glyph glyph-name="afii10104" unicode="&#x457;" horiz-adv-x="165" 
d="M289 691l-24 -103h-77l24 103h77zM175 691l-23 -103h-79l23 103h79zM191 497l-115 -497h-80l114 497h81z" />
    <glyph glyph-name="afii10105" unicode="&#x458;" horiz-adv-x="180" 
d="M249 691l-24 -104h-80l24 104h80zM203 497l-118 -508q-11 -47 -18 -69t-22.5 -46.5t-40.5 -33.5t-64 -9q-17 0 -57 4l16 66q31 -3 44 -3q28 0 39 17.5t29 92.5l113 489h79z" />
    <glyph glyph-name="afii10106" unicode="&#x459;" horiz-adv-x="542" 
d="M410 497l-43 -189h23q58 0 84 -9q47 -19 47 -86q0 -90 -37 -153q-34 -60 -136 -60h-131l99 437h-102q-25 -110 -40 -172.5t-33 -118t-31.5 -79.5t-35.5 -42t-43 -21.5t-57 -3.5h-14l15 65h9q36 0 55 31q26 41 73 249q10 42 35 152h263zM377 248h-24l-43 -188h27
q39 0 58 7t28 25q7 13 15 46t8 54q0 32 -14.5 44t-54.5 12z" />
    <glyph glyph-name="afii10107" unicode="&#x45a;" horiz-adv-x="523" 
d="M313 497h80l-45 -196h23q58 0 84 -9q47 -19 47 -86q0 -86 -35 -146t-136 -60h-131l55 241h-124l-55 -241h-80l113 497h80l-45 -196h124zM358 241h-24l-41 -181h27q39 0 58 7t28 25q7 12 14 43t7 50q0 32 -14.5 44t-54.5 12z" />
    <glyph glyph-name="afii10108" unicode="&#x45b;" 
d="M326 635l-14 -60h-104l-27 -118q40 49 94 49q43 0 69.5 -24.5t26.5 -63.5q0 -26 -10 -69l-81 -349h-80l80 350q6 24 6 40q0 24 -13.5 38t-36.5 14q-31 0 -49 -19.5t-28 -61.5l-83 -361h-80l132 575h-53l14 60h52l17 71h80l-17 -71h105z" />
    <glyph glyph-name="afii10109" unicode="&#x45c;" horiz-adv-x="361" 
d="M110 497h79l-47 -204h38q30 0 47.5 14.5t27.5 55.5l12 49q21 85 94 85h38l-14 -60h-4q-17 0 -25 -9.5t-14 -35.5l-8 -34q-12 -50 -24.5 -69t-42.5 -26q36 -11 36 -50q0 -15 -10 -55l-8 -35q-5 -25 -5 -37q0 -26 27 -26l-14 -60h-14q-39 0 -61 19t-22 52q0 11 3 25l10 44
q9 43 9 53q0 21 -10.5 30.5t-35.5 9.5h-43l-54 -233h-79zM395 671l-132 -107h-64l87 107h109z" />
    <glyph glyph-name="afii10110" unicode="&#x45e;" horiz-adv-x="315" 
d="M295 497h88l-224 -517q-38 -89 -74 -116q-37 -26 -91 -26q-20 0 -59 8l16 68q29 -8 45 -8q42 0 62 32q13 23 13 83q-2 439 -2 476h83l-14 -409zM233 570q-50 0 -74 22t-24 59q0 7 2 21h67v-10q0 -36 38 -36q23 0 35.5 10.5t17.5 35.5h68q-20 -102 -130 -102z" />
    <glyph glyph-name="afii10193" unicode="&#x45f;" horiz-adv-x="363" 
d="M275 0h-99l-32 -138h-80l32 138h-100l113 497h80l-100 -437h119l100 437h80z" />
    <glyph glyph-name="afii10050" unicode="&#x490;" horiz-adv-x="355" 
d="M444 627h-212l-145 -627h-86l163 706h212l32 140h86z" />
    <glyph glyph-name="afii10098" unicode="&#x491;" horiz-adv-x="270" 
d="M281 618h80l-42 -181h-143l-100 -437h-80l113 497h144z" />
    <glyph glyph-name="Wgrave" unicode="&#x1e80;" horiz-adv-x="651" 
d="M757 706l-286 -706h-116l61 585l-218 -585h-118l52 706h87l-61 -633l228 633h113l-69 -633l241 633h86zM500 764h-65l-89 107h105z" />
    <glyph glyph-name="wgrave" unicode="&#x1e81;" horiz-adv-x="521" 
d="M589 497l-212 -497h-96l31 421l-168 -421h-98l23 497h87l-45 -425l163 425h107l-30 -419l154 419h84zM384 564h-64l-92 107h105z" />
    <glyph glyph-name="Wacute" unicode="&#x1e82;" horiz-adv-x="651" 
d="M757 706l-286 -706h-116l61 585l-218 -585h-118l52 706h87l-61 -633l228 633h113l-69 -633l241 633h86zM570 871l-123 -107h-64l78 107h109z" />
    <glyph glyph-name="wacute" unicode="&#x1e83;" horiz-adv-x="521" 
d="M589 497l-212 -497h-96l31 421l-168 -421h-98l23 497h87l-45 -425l163 425h107l-30 -419l154 419h84zM468 671l-132 -107h-64l87 107h109z" />
    <glyph glyph-name="Wdieresis" unicode="&#x1e84;" horiz-adv-x="651" 
d="M757 706l-286 -706h-116l61 585l-218 -585h-118l52 706h87l-61 -633l228 633h113l-69 -633l241 633h86zM604 871l-25 -107h-83l25 107h83zM431 871l-25 -107h-83l25 107h83z" />
    <glyph glyph-name="wdieresis" unicode="&#x1e85;" horiz-adv-x="521" 
d="M589 497l-212 -497h-96l31 421l-168 -421h-98l23 497h87l-45 -425l163 425h107l-30 -419l154 419h84zM471 666l-24 -103h-77l24 103h77zM321 666l-23 -103h-79l23 103h79z" />
    <glyph glyph-name="Ygrave" unicode="&#x1ef2;" horiz-adv-x="388" 
d="M507 706l-262 -433l-62 -273h-87l63 275l-48 431h87l25 -344l187 344h97zM362 764h-65l-89 107h105z" />
    <glyph glyph-name="ygrave" unicode="&#x1ef3;" horiz-adv-x="315" 
d="M295 497h88l-224 -517q-38 -89 -74 -116q-37 -26 -91 -26q-20 0 -59 8l16 68q29 -8 45 -8q42 0 62 32q13 23 13 83q-2 439 -2 476h83l-14 -409zM289 564h-64l-92 107h105z" />
    <glyph glyph-name="endash" unicode="&#x2013;" horiz-adv-x="370" 
d="M371 331l-18 -78h-320l18 78h320z" />
    <glyph glyph-name="emdash" unicode="&#x2014;" horiz-adv-x="567" 
d="M568 331l-18 -78h-517l18 78h517z" />
    <glyph glyph-name="quoteleft" unicode="&#x2018;" horiz-adv-x="167" 
d="M236 709l-11 -52q-26 -9 -36.5 -25.5t-17.5 -59.5h37l-27 -118h-85l26 113q11 49 22 72.5t30 40.5q22 19 62 29z" />
    <glyph glyph-name="quoteright" unicode="&#x2019;" horiz-adv-x="167" 
d="M244 706l-26 -113q-11 -49 -22 -72.5t-30 -40.5q-22 -19 -62 -29l11 52q26 9 36.5 25.5t17.5 59.5h-37l27 118h85z" />
    <glyph glyph-name="quotesinglbase" unicode="&#x201a;" horiz-adv-x="167" 
d="M109 118l-26 -113q-11 -48 -22.5 -72t-30.5 -41q-22 -19 -62 -29l11 52q26 9 37 25.5t18 59.5h-37l26 118h86z" />
    <glyph glyph-name="quotedblleft" unicode="&#x201c;" horiz-adv-x="313" 
d="M382 709l-11 -52q-26 -9 -36.5 -25t-18.5 -60h37l-26 -118h-85l25 113q10 47 21.5 71.5t31.5 41.5q22 19 62 29zM236 709l-11 -52q-26 -9 -36.5 -25.5t-17.5 -59.5h37l-27 -118h-85l26 113q11 49 22 72.5t30 40.5q22 19 62 29z" />
    <glyph glyph-name="quotedblright" unicode="&#x201d;" horiz-adv-x="313" 
d="M390 706l-26 -113q-19 -83 -52 -113q-22 -19 -63 -29l11 52q26 9 37 25.5t18 59.5h-37l27 118h85zM244 706l-26 -113q-11 -49 -22 -72.5t-30 -40.5q-22 -19 -62 -29l11 52q26 9 36.5 25.5t17.5 59.5h-37l27 118h85z" />
    <glyph glyph-name="quotedblbase" unicode="&#x201e;" horiz-adv-x="313" 
d="M254 118l-25 -113q-10 -47 -21.5 -71.5t-31.5 -41.5q-22 -19 -62 -29l11 52q26 9 36.5 25t18.5 60h-37l26 118h85zM109 118l-26 -113q-11 -48 -22.5 -72t-30.5 -41q-22 -19 -62 -29l11 52q26 9 37 25.5t18 59.5h-37l26 118h86z" />
    <glyph glyph-name="dagger" unicode="&#x2020;" horiz-adv-x="375" 
d="M412 467l-17 -71h-122l-115 -509h-79l115 509h-126l17 71h126l54 239h79l-54 -239h122z" />
    <glyph glyph-name="daggerdbl" unicode="&#x2021;" horiz-adv-x="375" 
d="M412 488l-17 -71h-121l-45 -198h122l-17 -71h-121l-60 -261h-79l60 261h-126l16 71h126l45 198h-126l16 71h126l49 218h79l-49 -218h122z" />
    <glyph glyph-name="bullet" unicode="&#x2022;" horiz-adv-x="341" 
d="M330 480l-59 -248h-186l58 248h187z" />
    <glyph glyph-name="ellipsis" unicode="&#x2026;" horiz-adv-x="1000" 
d="M846 100l-23 -100h-83l22 100h84zM513 100l-22 -100h-84l23 100h83zM180 100l-23 -100h-84l23 100h84z" />
    <glyph glyph-name="perthousand" unicode="&#x2030;" horiz-adv-x="901" 
d="M635 315l-52 -216q-25 -103 -112 -103q-42 0 -68.5 24t-26.5 62q0 18 6 44l52 215q25 104 110 104q43 0 70 -24t27 -62q0 -20 -6 -44zM609 706l-476 -706h-49l476 706h49zM304 579l-51 -215q-25 -104 -113 -104q-41 0 -67.5 24.5t-26.5 62.5q0 17 6 44l51 215
q25 104 110 104q44 0 70.5 -23.5t26.5 -62.5q0 -18 -6 -45zM521 120l46 197q5 19 5 32q0 16 -8.5 25.5t-22.5 9.5q-17 0 -26.5 -12t-18.5 -51l-46 -197q-5 -24 -5 -33q0 -15 8.5 -24.5t22.5 -9.5q16 0 26 12t19 51zM191 385l45 197q5 22 5 33q0 15 -8 24t-22 9
q-18 0 -27.5 -12t-18.5 -50l-45 -197q-5 -23 -5 -33q0 -15 8.5 -24.5t21.5 -9.5q16 0 26.5 11.5t19.5 51.5zM911 315l-52 -216q-25 -103 -112 -103q-42 0 -68.5 24t-26.5 62q0 18 6 44l52 215q25 104 110 104q43 0 70 -24t27 -62q0 -20 -6 -44zM797 120l46 197q5 19 5 32
q0 16 -8.5 25.5t-22.5 9.5q-17 0 -26.5 -12t-18.5 -51l-46 -197q-5 -24 -5 -33q0 -15 8.5 -24.5t22.5 -9.5q16 0 26 12t19 51z" />
    <glyph glyph-name="guilsinglleft" unicode="&#x2039;" horiz-adv-x="192" 
d="M221 479l-29 -127l-92 -76l53 -91l-24 -106l-103 164l20 86z" />
    <glyph glyph-name="guilsinglright" unicode="&#x203a;" horiz-adv-x="192" 
d="M202 319l-20 -86l-175 -150l29 127l93 76l-53 90l24 107z" />
    <glyph glyph-name="fraction" unicode="&#x2044;" horiz-adv-x="125" 
d="M356 706l-476 -706h-49l476 706h49z" />
    <glyph glyph-name="zero.superior" unicode="&#x2070;" horiz-adv-x="254" 
d="M91 520l54 244q12 51 39.5 74.5t78.5 23.5q47 0 71 -21t24 -54q0 -16 -11 -65l-40 -182q-14 -66 -41.5 -98t-87.5 -32q-43 0 -67.5 19.5t-24.5 52.5q0 18 5 38zM211 750l-48 -216q-6 -24 -6 -36q0 -24 30 -24q21 0 30.5 10t16.5 40l44 200q7 32 7 47q0 28 -30 28
q-18 0 -27.5 -10t-16.5 -39z" />
    <glyph glyph-name="four.superior" unicode="&#x2074;" horiz-adv-x="254" 
d="M250 415h-66l23 94h-131l16 69l179 278h82l-67 -287h44l-15 -60h-43zM222 569l54 208l-121 -208h67z" />
    <glyph glyph-name="five.superior" unicode="&#x2075;" horiz-adv-x="254" 
d="M360 856l-15 -59h-128l-20 -91q18 19 55 19q67 0 67 -67q0 -21 -7 -54l-18 -82q-13 -60 -42 -86t-87 -26q-41 0 -65 21.5t-24 54.5q0 27 9 63h68q-8 -24 -8 -42q0 -19 8 -26.5t27 -7.5q34 0 43 39l21 94q3 16 3 29q0 25 -28 25q-32 0 -43 -42h-62l53 238h193z" />
    <glyph glyph-name="six.superior" unicode="&#x2076;" horiz-adv-x="254" 
d="M357 742h-65q5 18 5 31q0 32 -31 32q-20 0 -32 -13q-10 -12 -25 -66l-14 -52q24 30 65 30q65 0 65 -67q0 -19 -7 -48l-15 -69q-13 -58 -41 -84t-82 -26q-47 0 -70.5 20t-23.5 56q0 16 10 56l50 208q15 64 44.5 88t84.5 24q41 0 64.5 -18t23.5 -49q0 -27 -6 -53zM177 598
l-15 -62q-5 -23 -5 -35q0 -29 29 -29q21 0 31 10.5t18 42.5l16 66q4 18 4 27q0 31 -29 31q-21 0 -31.5 -10t-17.5 -41z" />
    <glyph glyph-name="seven.superior" unicode="&#x2077;" horiz-adv-x="254" 
d="M158 415h-73q66 232 219 382h-166l15 59h239l-15 -52q-142 -141 -219 -389z" />
    <glyph glyph-name="eight.superior" unicode="&#x2078;" horiz-adv-x="254" 
d="M183 664q-40 13 -40 50q0 22 6 48l9 34q17 66 107 66q40 0 63.5 -16t23.5 -46q0 -17 -5 -40l-6 -27q-14 -64 -72 -74q46 -10 46 -55q0 -19 -6 -43l-15 -65q-11 -46 -39.5 -66t-77.5 -20q-40 0 -66 18t-26 51q0 19 6 46l12 56q9 39 29 58t51 25zM217 773l-6 -25
q-3 -14 -3 -25q0 -25 27 -25q34 0 41 28q9 34 9 50q0 27 -30 27q-17 0 -25 -7t-13 -23zM232 520l11 50q4 20 4 29q0 26 -32 26q-18 0 -28.5 -9.5t-16.5 -37.5l-10 -47q-4 -22 -4 -28q0 -30 31 -30q19 0 28.5 10t16.5 37z" />
    <glyph glyph-name="nine.superior" unicode="&#x2079;" horiz-adv-x="254" 
d="M90 530h65q-5 -18 -5 -31q0 -32 31 -32q21 0 31.5 12t21.5 52l19 70q-20 -30 -65 -30q-65 0 -65 67q0 16 7 48l14 66q13 58 39.5 84t75.5 26q102 0 102 -66q0 -26 -10 -66l-50 -208q-16 -67 -45.5 -89.5t-83.5 -22.5q-41 0 -64.5 18t-23.5 49q0 28 6 53zM271 677l14 59
q5 23 5 35q0 29 -29 29q-21 0 -31 -10.5t-18 -42.5l-15 -63q-4 -18 -4 -27q0 -31 28 -31q21 0 32 10.5t18 40.5z" />
    <glyph glyph-name="parenleft.superior" unicode="&#x207d;" horiz-adv-x="184" 
d="M286 894l29 -30q-69 -65 -108 -154.5t-39 -181.5q0 -103 31 -168l-37 -21q-56 104 -56 204q0 186 180 351z" />
    <glyph glyph-name="parenright.superior" unicode="&#x207e;" horiz-adv-x="184" 
d="M80 339l-29 30q69 65 108 154.5t39 181.5q0 103 -31 168l37 21q56 -104 56 -204q0 -186 -180 -351z" />
    <glyph glyph-name="zero.inferior" unicode="&#x2080;" horiz-adv-x="254" 
d="M-39 -45l54 244q12 51 39.5 74.5t78.5 23.5q47 0 71 -21t24 -54q0 -16 -11 -65l-40 -182q-14 -66 -41.5 -98t-87.5 -32q-43 0 -67.5 19.5t-24.5 52.5q0 18 5 38zM81 185l-48 -216q-6 -24 -6 -36q0 -24 30 -24q21 0 30.5 10t16.5 40l44 200q7 32 7 47q0 28 -30 28
q-18 0 -27.5 -10t-16.5 -39z" />
    <glyph glyph-name="one.inferior" unicode="&#x2081;" horiz-adv-x="254" 
d="M189 291l-103 -441h-68l79 338h-72l12 50h4q42 0 61 11.5t28 41.5h59z" />
    <glyph glyph-name="two.inferior" unicode="&#x2082;" horiz-adv-x="254" 
d="M-62 -150l14 53l116 134q52 60 74 98.5t22 74.5q0 27 -27 27q-22 0 -33 -21q-8 -15 -24 -82h-60q17 81 32 109q29 54 93 54q41 0 64 -22t23 -61q0 -84 -100 -198l-91 -105h122l-15 -61h-210z" />
    <glyph glyph-name="three.inferior" unicode="&#x2083;" horiz-adv-x="254" 
d="M58 54l15 54h7q32 0 47.5 13t23.5 42q10 30 10 47q0 28 -26 28q-37 0 -50 -73h-60q11 59 26 84q27 48 89 48q42 0 65 -19.5t23 -56.5q0 -34 -17 -78q-19 -50 -68 -59q42 -12 42 -59q0 -46 -27 -108q-29 -72 -105 -72q-45 0 -70.5 20.5t-25.5 55.5q0 20 13 63h67
q-9 -45 -9 -47q0 -28 31 -28q24 0 39 36q17 44 17 73q0 36 -42 36h-15z" />
    <glyph glyph-name="four.inferior" unicode="&#x2084;" horiz-adv-x="254" 
d="M118 -150h-66l23 94h-131l16 69l179 278h82l-67 -287h44l-15 -60h-43zM90 4l54 208l-121 -208h67z" />
    <glyph glyph-name="five.inferior" unicode="&#x2085;" horiz-adv-x="254" 
d="M238 291l-15 -59h-128l-20 -91q18 19 55 19q67 0 67 -67q0 -21 -7 -54l-18 -82q-13 -60 -42 -86t-87 -26q-41 0 -65 21.5t-24 54.5q0 27 9 63h68q-8 -24 -8 -42q0 -19 8 -26.5t27 -7.5q34 0 43 39l21 94q3 16 3 29q0 25 -28 25q-32 0 -43 -42h-62l53 238h193z" />
    <glyph glyph-name="six.inferior" unicode="&#x2086;" horiz-adv-x="254" 
d="M220 177h-65q5 17 5 31q0 32 -31 32q-20 0 -32 -13q-10 -12 -25 -66l-14 -52q24 30 65 30q65 0 65 -67q0 -19 -7 -48l-15 -69q-13 -58 -41 -84t-82 -26q-47 0 -70.5 20t-23.5 56q0 16 10 56l50 208q15 64 44.5 88t84.5 24q41 0 64.5 -18t23.5 -49q0 -27 -6 -53zM40 33
l-15 -62q-5 -23 -5 -35q0 -29 29 -29q21 0 31 10.5t18 42.5l16 66q4 18 4 27q0 31 -29 31q-21 0 -31.5 -10t-17.5 -41z" />
    <glyph glyph-name="seven.inferior" unicode="&#x2087;" horiz-adv-x="254" 
d="M31 -150h-73q66 232 219 382h-166l15 59h239l-15 -52q-142 -141 -219 -389z" />
    <glyph glyph-name="eight.inferior" unicode="&#x2088;" horiz-adv-x="254" 
d="M57 101q-40 13 -40 50q0 20 7 50l9 34q17 66 107 66q40 0 63.5 -16t23.5 -46q0 -17 -5 -40l-7 -29q-14 -64 -72 -74q46 -10 46 -55q0 -19 -6 -43l-16 -67q-12 -46 -40 -66t-77 -20q-40 0 -66 18t-26 51q0 19 6 46l13 58q9 39 29 58t51 25zM92 212l-6 -25q-4 -18 -4 -27
q0 -25 27 -25q34 0 41 28q10 37 10 52q0 27 -30 27q-17 0 -25 -7t-13 -23zM105 -45l12 52q4 20 4 29q0 26 -32 26q-18 0 -28.5 -9.5t-16.5 -37.5l-11 -49q-4 -22 -4 -28q0 -30 31 -30q18 0 28 10t17 37z" />
    <glyph glyph-name="nine.inferior" unicode="&#x2089;" horiz-adv-x="254" 
d="M-40 -35h65q-5 -17 -5 -31q0 -32 31 -32q21 0 31.5 12t21.5 52l19 70q-20 -30 -65 -30q-65 0 -65 67q0 16 7 48l14 66q13 58 39.5 84t75.5 26q102 0 102 -66q0 -26 -10 -66l-50 -208q-16 -67 -45.5 -89.5t-83.5 -22.5q-41 0 -64.5 18t-23.5 49q0 28 6 53zM141 112l14 59
q5 23 5 35q0 29 -29 29q-21 0 -31 -10.5t-18 -42.5l-15 -63q-4 -18 -4 -27q0 -31 28 -31q21 0 32 10.5t18 40.5z" />
    <glyph glyph-name="parenleft.inferior" unicode="&#x208d;" horiz-adv-x="184" 
d="M158 329l29 -30q-69 -65 -108 -154.5t-39 -181.5q0 -103 31 -168l-37 -21q-56 104 -56 204q0 186 180 351z" />
    <glyph glyph-name="parenright.inferior" unicode="&#x208e;" horiz-adv-x="184" 
d="M-50 -226l-29 30q69 65 108 154.5t39 181.5q0 103 -31 168l37 21q56 -104 56 -204q0 -186 -180 -351z" />
    <glyph glyph-name="Euro" unicode="&#x20ac;" horiz-adv-x="434" 
d="M508 661l-36 -77q-53 62 -120 62q-51 0 -75 -34.5t-42 -123.5l-9 -45h190l-25 -57h-178l-10 -49h167l-24 -57h-155l-11 -49q-15 -64 -15 -88q0 -79 83 -79q38 0 68 11.5t75 46.5l-22 -98q-69 -35 -139 -35q-73 0 -113 36t-40 102q0 34 19 115l9 38h-59l24 57h46l10 49
h-59l24 57h48l11 53q16 77 34 117.5t44 64.5q47 42 129 42q90 0 151 -59z" />
    <glyph glyph-name="afii61289" unicode="&#x2113;" horiz-adv-x="418" 
d="M335 152l41 -39q-49 -64 -94 -93t-97 -29q-48 0 -78 29t-30 80q0 34 6 69l-46 -34l-29 55l92 65q5 22 18 76t21.5 87t20.5 77.5t24 77.5t25 56q47 86 137 86q43 0 70.5 -26.5t27.5 -68.5q0 -76 -57 -167q-32 -52 -71.5 -94t-134.5 -126q-16 -60 -16 -106q0 -66 54 -66
q51 0 116 91zM196 321q87 85 129 158t42 122q0 20 -9.5 32.5t-25.5 12.5q-27 0 -46.5 -28t-40.5 -106q-41 -156 -49 -191z" />
    <glyph glyph-name="afii61352" unicode="&#x2116;" horiz-adv-x="698" 
d="M502 706l-164 -706h-120q2 596 2 639l-136 -639h-83l164 706h118l2 -640l135 640h82zM743 579l-51 -215q-25 -104 -113 -104q-41 0 -67.5 24.5t-26.5 62.5q0 17 6 44l51 215q25 104 110 104q44 0 70.5 -23.5t26.5 -62.5q0 -18 -6 -45zM630 385l45 197q5 22 5 33
q0 15 -8 24t-22 9q-18 0 -27.5 -12t-18.5 -50l-45 -197q-5 -22 -5 -33q0 -15 8.5 -24.5t21.5 -9.5q16 0 26.5 11.5t19.5 51.5zM653 195l-17 -71h-207l17 71h207z" />
    <glyph glyph-name="trademark" unicode="&#x2122;" horiz-adv-x="557" 
d="M627 706l-78 -332h-56l76 300l-134 -300h-61q6 273 7 300l-64 -300h-56l78 332h89l-8 -261l113 261h94zM303 706l-11 -48h-62l-64 -284h-59l65 284h-69l11 48h189z" />
    <glyph glyph-name="Omega" unicode="&#x2126;" horiz-adv-x="470" 
d="M399 77l-19 -77h-167l20 78q41 23 63 77q19 48 51 187l38 161q12 49 12 77q0 33 -20 51.5t-56 18.5q-38 0 -61 -23t-39 -92l-37 -160q-21 -90 -27 -125t-6 -76q0 -57 27 -96l-19 -78h-160l18 77h98q-37 53 -37 135q0 67 24 178l34 154q21 93 67.5 131.5t132.5 38.5
q68 0 107.5 -33.5t39.5 -91.5q0 -30 -11 -78l-34 -152q-26 -117 -52 -179.5t-78 -102.5h91z" />
    <glyph glyph-name="estimated" unicode="&#x212e;" horiz-adv-x="736" 
d="M724 338h-570q-5 -29 -5 -65q0 -102 61 -155t161 -53q160 0 257 157l79 -14q-117 -212 -351 -212q-137 0 -216 74.5t-79 203.5q0 32 7 79q27 168 132 263.5t262 95.5q136 0 205.5 -71t69.5 -194q0 -39 -13 -109zM167 405h474q3 24 3 45q0 193 -194 193q-107 0 -180.5 -60
t-102.5 -178z" />
    <glyph glyph-name="onethird" unicode="&#x2153;" horiz-adv-x="625" 
d="M586 706l-476 -706h-49l477 706h48zM280 706l-103 -441h-68l79 338h-72l12 50h4q42 0 61 11.5t28 41.5h59zM443 204l15 54h7q32 0 47.5 13t23.5 42q10 30 10 47q0 28 -26 28q-37 0 -50 -73h-60q11 59 26 84q27 48 89 48q42 0 65 -19.5t23 -56.5q0 -34 -17 -78
q-19 -50 -68 -59q42 -12 42 -59q0 -46 -27 -108q-29 -72 -105 -72q-45 0 -70.5 20.5t-25.5 55.5q0 20 13 63h67q-9 -45 -9 -47q0 -28 31 -28q24 0 39 36q17 44 17 73q0 36 -42 36h-15z" />
    <glyph glyph-name="twothirds" unicode="&#x2154;" horiz-adv-x="625" 
d="M603 706l-476 -706h-49l477 706h48zM19 265l14 53l116 134q52 60 74 98.5t22 74.5q0 27 -27 27q-22 0 -33 -21q-8 -15 -24 -82h-60q17 81 32 109q29 54 93 54q41 0 64 -22t23 -61q0 -84 -100 -198l-91 -105h122l-15 -61h-210zM455 204l15 54h7q32 0 47.5 13t23.5 42
q10 30 10 47q0 28 -26 28q-37 0 -50 -73h-60q11 59 26 84q27 48 89 48q42 0 65 -19.5t23 -56.5q0 -34 -17 -78q-19 -50 -68 -59q42 -12 42 -59q0 -46 -27 -108q-29 -72 -105 -72q-45 0 -70.5 20.5t-25.5 55.5q0 20 13 63h67q-9 -45 -9 -47q0 -28 31 -28q24 0 39 36
q17 44 17 73q0 36 -42 36h-15z" />
    <glyph glyph-name="oneeighth" unicode="&#x215b;" horiz-adv-x="625" 
d="M585 706l-476 -706h-49l477 706h48zM283 706l-103 -441h-68l79 338h-72l12 50h4q42 0 61 11.5t28 41.5h59zM449 249q-40 13 -40 50q0 23 6 48l9 34q17 66 107 66q40 0 63.5 -16t23.5 -46q0 -17 -5 -40l-6 -27q-14 -64 -72 -74q46 -10 46 -55q0 -19 -6 -43l-15 -65
q-11 -46 -39.5 -66t-77.5 -20q-40 0 -66 18t-26 51q0 19 6 46l12 56q9 39 29 58t51 25zM483 358l-6 -25q-3 -13 -3 -25q0 -25 27 -25q34 0 41 28q9 34 9 50q0 27 -30 27q-17 0 -25 -7t-13 -23zM498 105l11 50q4 20 4 29q0 26 -32 26q-18 0 -28.5 -9.5t-16.5 -37.5l-10 -47
q-4 -22 -4 -28q0 -30 31 -30q19 0 28.5 10t16.5 37z" />
    <glyph glyph-name="threeeighths" unicode="&#x215c;" horiz-adv-x="625" 
d="M594 706l-476 -706h-49l477 706h48zM140 469l15 54h7q32 0 47.5 13t23.5 42q10 30 10 47q0 28 -26 28q-37 0 -50 -73h-60q11 59 26 84q27 48 89 48q42 0 65 -19.5t23 -56.5q0 -34 -17 -78q-19 -50 -68 -59q42 -12 42 -59q0 -46 -27 -108q-29 -72 -105 -72
q-45 0 -70.5 20.5t-25.5 55.5q0 20 13 63h67q-9 -45 -9 -47q0 -28 31 -28q24 0 39 36q17 44 17 73q0 36 -42 36h-15zM455 249q-40 13 -40 50q0 23 6 48l9 34q17 66 107 66q40 0 63.5 -16t23.5 -46q0 -17 -5 -40l-6 -27q-14 -64 -72 -74q46 -10 46 -55q0 -19 -6 -43l-15 -65
q-11 -46 -39.5 -66t-77.5 -20q-40 0 -66 18t-26 51q0 19 6 46l12 56q9 39 29 58t51 25zM489 358l-6 -25q-3 -13 -3 -25q0 -25 27 -25q34 0 41 28q9 34 9 50q0 27 -30 27q-17 0 -25 -7t-13 -23zM504 105l11 50q4 20 4 29q0 26 -32 26q-18 0 -28.5 -9.5t-16.5 -37.5l-10 -47
q-4 -22 -4 -28q0 -30 31 -30q19 0 28.5 10t16.5 37z" />
    <glyph glyph-name="fiveeighths" unicode="&#x215d;" horiz-adv-x="625" 
d="M605 706l-476 -706h-49l477 706h48zM334 706l-15 -59h-128l-20 -91q18 19 55 19q67 0 67 -67q0 -21 -7 -54l-18 -82q-13 -60 -42 -86t-87 -26q-41 0 -65 21.5t-24 54.5q0 27 9 63h68q-8 -24 -8 -42q0 -19 8 -26.5t27 -7.5q34 0 43 39l21 94q3 16 3 29q0 25 -28 25
q-32 0 -43 -42h-62l53 238h193zM461 249q-40 13 -40 50q0 23 6 48l9 34q17 66 107 66q40 0 63.5 -16t23.5 -46q0 -17 -5 -40l-6 -27q-14 -64 -72 -74q46 -10 46 -55q0 -19 -6 -43l-15 -65q-11 -46 -39.5 -66t-77.5 -20q-40 0 -66 18t-26 51q0 19 6 46l12 56q9 39 29 58
t51 25zM495 358l-6 -25q-3 -13 -3 -25q0 -25 27 -25q34 0 41 28q9 34 9 50q0 27 -30 27q-17 0 -25 -7t-13 -23zM510 105l11 50q4 20 4 29q0 26 -32 26q-18 0 -28.5 -9.5t-16.5 -37.5l-10 -47q-4 -22 -4 -28q0 -30 31 -30q19 0 28.5 10t16.5 37z" />
    <glyph glyph-name="seveneighths" unicode="&#x215e;" horiz-adv-x="625" 
d="M573 706l-476 -706h-49l477 706h48zM148 265h-73q66 232 219 382h-166l15 59h239l-15 -52q-142 -141 -219 -389zM450 249q-40 13 -40 50q0 23 6 48l9 34q17 66 107 66q40 0 63.5 -16t23.5 -46q0 -17 -5 -40l-6 -27q-14 -64 -72 -74q46 -10 46 -55q0 -19 -6 -43l-15 -65
q-11 -46 -39.5 -66t-77.5 -20q-40 0 -66 18t-26 51q0 19 6 46l12 56q9 39 29 58t51 25zM484 358l-6 -25q-3 -13 -3 -25q0 -25 27 -25q34 0 41 28q9 34 9 50q0 27 -30 27q-17 0 -25 -7t-13 -23zM499 105l11 50q4 20 4 29q0 26 -32 26q-18 0 -28.5 -9.5t-16.5 -37.5l-10 -47
q-4 -22 -4 -28q0 -30 31 -30q18 0 28 10t17 37z" />
    <glyph glyph-name="partialdiff" unicode="&#x2202;" horiz-adv-x="433" 
d="M191 633l3 70q45 13 85 13q79 0 115 -49.5t36 -157.5q0 -147 -52 -311q-67 -208 -201 -208q-69 0 -109 46t-40 126q0 110 58 189t140 79q63 0 108 -56q12 72 12 132q0 75 -20 107t-67 32q-25 0 -68 -12zM315 299q-36 62 -90 62q-49 0 -82 -58t-33 -142q0 -49 19 -76
t53 -27q94 0 133 241z" />
    <glyph glyph-name="Delta" unicode="&#x2206;" horiz-adv-x="428" 
d="M375 0h-428l332 706h90zM76 79h213l9 508z" />
    <glyph glyph-name="product" unicode="&#x220f;" horiz-adv-x="478" 
d="M523 706l-191 -828h-85l172 749h-173l-173 -749h-85l191 828h344z" />
    <glyph glyph-name="summation" unicode="&#x2211;" horiz-adv-x="433" 
d="M489 706l-20 -79h-228l114 -334l-261 -336h228l-19 -79h-329l17 71l268 353l-110 332l16 72h324z" />
    <glyph glyph-name="minus" unicode="&#x2212;" horiz-adv-x="559" 
d="M520 334l-17 -73h-422l17 73h422z" />
    <glyph glyph-name="uni2215" unicode="&#x2215;" horiz-adv-x="125" 
d="M356 706l-476 -706h-49l476 706h49z" />
    <glyph glyph-name="uni2219" unicode="&#x2219;" horiz-adv-x="167" 
d="M160 347l-27 -118h-86l27 118h86z" />
    <glyph glyph-name="radical" unicode="&#x221a;" horiz-adv-x="500" 
d="M573 706l-355 -891h-80l-52 297l-61 -23l-17 65l138 52l41 -265l302 765h84z" />
    <glyph glyph-name="infinity" unicode="&#x221e;" horiz-adv-x="559" 
d="M282 229l-8 -11q-42 -58 -70 -78.5t-65 -20.5q-46 0 -71.5 35t-25.5 98q0 91 45.5 156.5t107.5 65.5q39 0 64.5 -26t48.5 -86q43 62 74.5 87t70.5 25q44 0 70 -35.5t26 -96.5q0 -94 -43.5 -158.5t-106.5 -64.5q-41 0 -66.5 24t-50.5 86zM337 295q21 -59 35.5 -81
t35.5 -22q28 0 48 39.5t20 93.5q0 74 -38 74q-35 0 -101 -104zM254 296q-20 59 -35 81t-36 22q-27 0 -47 -39.5t-20 -94.5q0 -73 37 -73q19 0 41.5 24t59.5 80z" />
    <glyph glyph-name="integral" unicode="&#x222b;" horiz-adv-x="271" 
d="M368 706l-18 -80q-22 18 -44 18q-20 0 -31.5 -16.5t-21.5 -59.5l-133 -597q-18 -79 -52 -113t-90 -34q-32 0 -61 12l19 82q21 -18 43 -18q23 0 36 16.5t23 59.5l123 559q23 106 51.5 144.5t98.5 38.5q25 0 57 -12z" />
    <glyph glyph-name="approxequal" unicode="&#x2248;" horiz-adv-x="559" 
d="M510 445l25 -63q-77 -69 -135 -69q-27 0 -84 27l-24 12q-41 21 -70 21q-21 0 -38 -9.5t-49 -37.5l-9 -8l-25 64q44 40 69 54t61 14q28 0 80 -23l42 -19q40 -18 54 -18q42 0 103 55zM475 280l24 -63q-74 -68 -134 -68q-34 0 -85 26l-23 12q-41 21 -70 21q-21 0 -38.5 -9.5
t-48.5 -37.5l-9 -8l-25 64q43 41 68 54.5t62 13.5q28 0 80 -23l42 -19q38 -17 54 -17q41 0 103 54z" />
    <glyph glyph-name="notequal" unicode="&#x2260;" horiz-adv-x="551" 
d="M522 422l-17 -72h-138l-65 -97h180l-16 -73h-211l-93 -139h-70l92 139h-107l17 73h137l66 97h-180l16 72h210l86 129h71l-86 -129h108z" />
    <glyph glyph-name="lessequal" unicode="&#x2264;" horiz-adv-x="559" 
d="M535 578l-21 -92l-311 -146l247 -148l-19 -81l-317 194l19 78zM422 74l-16 -74h-362l17 74h361z" />
    <glyph glyph-name="greaterequal" unicode="&#x2265;" horiz-adv-x="559" 
d="M517 384l-18 -78l-403 -195l21 92l311 146l-246 147l19 81zM444 74l-17 -74h-361l16 74h362z" />
    <glyph glyph-name="lozenge" unicode="&#x25ca;" horiz-adv-x="559" 
d="M506 354l-236 -354h-77l-83 356l236 349h77zM421 357l-54 266l-170 -270l52 -272z" />
    <glyph glyph-name="uniF6C1" unicode="&#xf6c1;" horiz-adv-x="366" 
d="M409 493h-79l10 44q6 26 6 40q0 64 -62 64q-43 0 -66.5 -28t-23.5 -78q0 -26 7 -45t32 -58l69 -108q43 -68 43 -133q0 -93 -50.5 -146t-138.5 -53h-9l-35 -65q20 7 36 7q31 0 50.5 -16.5t19.5 -43.5q0 -37 -33 -63.5t-79 -26.5q-37 0 -86 27l17 23l4 -3q32 -16 53 -16
q26 0 43.5 14.5t17.5 36.5q0 15 -9.5 25t-25.5 10q-14 0 -30 -10l-19 9l48 95q-58 8 -89.5 43t-31.5 91q0 31 9 67l13 53h84l-8 -34q-13 -56 -13 -76q0 -74 80 -74q45 0 70.5 31t25.5 86q0 44 -34 97l-77 120q-43 68 -43 125q0 89 49.5 139.5t135.5 50.5q137 0 137 -116
q0 -24 -11 -73z" />
    <glyph glyph-name="uniF6C2" unicode="&#xf6c2;" horiz-adv-x="310" 
d="M321 346h-71q6 28 6 47q0 50 -52 50q-30 0 -46 -18t-16 -41q0 -17 8 -32.5t40 -52.5l48 -55q26 -30 35.5 -53t9.5 -54q0 -64 -42 -104.5t-108 -40.5q-9 0 -13 1l-35 -66q20 7 36 7q31 0 50.5 -16.5t19.5 -43.5q0 -37 -33 -63.5t-79 -26.5q-37 0 -86 27l17 23l4 -3
q32 -16 53 -16q26 0 43.5 14.5t17.5 36.5q0 15 -9.5 25t-25.5 10q-14 0 -30 -10l-19 9l49 96q-44 9 -68 37t-24 70q0 27 12 75h76q-11 -41 -11 -64q0 -58 63 -58q31 0 48 19t17 53q0 19 -8 34t-31 42l-51 59q-48 55 -48 107q0 61 39.5 98.5t103.5 37.5q55 0 86.5 -27
t31.5 -74q0 -23 -8 -59z" />
    <glyph glyph-name="acute.cap" horiz-adv-x="208" 
d="M197 871l-123 -107h-64l78 107h109z" />
    <glyph glyph-name="breve.cap" horiz-adv-x="208" 
d="M189 888l29 -19q-44 -111 -124 -111q-43 0 -71 33t-33 92l34 9q4 -36 23.5 -55.5t50.5 -19.5q59 0 91 71z" />
    <glyph glyph-name="caron.cap" horiz-adv-x="208" 
d="M158 871h78l-119 -107h-65l-80 107h78l42 -63z" />
    <glyph glyph-name="cedilla.cap" horiz-adv-x="208" 
d="M113 11h29l-45 -84q20 7 36 7q31 0 50.5 -16.5t19.5 -43.5q0 -37 -33 -63.5t-79 -26.5q-37 0 -86 27l17 23l4 -3q32 -16 53 -16q26 0 43.5 14.5t17.5 36.5q0 15 -9.5 25t-25.5 10q-14 0 -30 -10l-19 9z" />
    <glyph glyph-name="circumflex.cap" horiz-adv-x="208" 
d="M236 763h-79l-41 63l-66 -63h-78l119 107h65z" />
    <glyph glyph-name="commaaccent" horiz-adv-x="208" 
d="M82 -29h71l-10 -43q-8 -35 -28.5 -53.5t-60.5 -24.5l6 26q33 9 38 34h-30z" />
    <glyph glyph-name="dieresis.cap" horiz-adv-x="208" 
d="M245 871l-25 -107h-83l25 107h83zM72 871l-25 -107h-83l25 107h83z" />
    <glyph glyph-name="dotaccent.cap" horiz-adv-x="208" 
d="M158 871l-25 -107h-83l25 107h83z" />
    <glyph glyph-name="grave.cap" horiz-adv-x="208" 
d="M181 764h-65l-89 107h105z" />
    <glyph glyph-name="hungarumlaut.cap" horiz-adv-x="208" 
d="M262 871l-122 -107h-58l78 107h102zM127 871l-122 -107h-58l78 107h102z" />
    <glyph glyph-name="macron.cap" horiz-adv-x="208" 
d="M210 773h-224l12 64h224z" />
    <glyph glyph-name="ring.cap" horiz-adv-x="208" 
d="M184 834q0 -33 -24.5 -57t-57.5 -24q-32 0 -55.5 23.5t-23.5 57.5q0 33 23.5 56.5t56.5 23.5t57 -23.5t24 -56.5zM140 834q0 16 -10.5 26.5t-26.5 10.5t-26 -10.5t-10 -27.5q0 -15 10.5 -25.5t25.5 -10.5t26 10.5t11 26.5z" />
    <glyph glyph-name="tilde.cap" horiz-adv-x="208" 
d="M202 851h38q-5 -41 -26 -66t-56 -25q-29 0 -69 20q-34 17 -46 17q-28 0 -36 -37h-40q5 42 30 68t62 26q20 0 56 -16l27 -13q17 -7 30 -7q23 0 30 33z" />
    <glyph glyph-name="caron.alt" horiz-adv-x="208" 
d="M85 706h78l-14 -60q-13 -54 -34 -81.5t-71 -36.5l8 35q25 6 36 21.5t17 42.5h-38z" />
    <glyph glyph-name="zero.tab" horiz-adv-x="375" 
d="M408 494l-68 -297q-13 -51 -16 -62q-40 -144 -177 -144q-61 0 -98.5 32.5t-37.5 85.5q0 24 7 57l93 403q43 147 175 147q62 0 101 -33t39 -85q0 -26 -18 -104zM252 195l72 316q11 49 11 70q0 26 -15.5 40.5t-43.5 14.5q-39 0 -60 -30q-14 -22 -31 -94l-73 -317
q-11 -48 -11 -68q0 -56 60 -56q39 0 60 30q15 24 31 94z" />
    <glyph glyph-name="one.tab" horiz-adv-x="375" 
d="M356 706l-164 -706h-88l128 554h-117l16 67h6q69 0 100 18t45 67h74z" />
    <glyph glyph-name="two.tab" horiz-adv-x="375" 
d="M286 0h-309l20 85l176 213q85 103 116 156q37 66 37 123q0 27 -14.5 42.5t-40.5 15.5q-15 0 -26.5 -4.5t-20 -15.5t-14.5 -21.5t-11.5 -30t-9 -32.5t-8.5 -38.5t-8 -38.5h-81q10 52 19 87t23.5 71t33.5 56.5t47.5 33.5t65.5 13q63 0 98 -34.5t35 -98.5q0 -125 -151 -305
l-169 -201h210z" />
    <glyph glyph-name="three.tab" horiz-adv-x="375" 
d="M184 505h-79q16 104 55 157.5t121 53.5q127 0 127 -113q0 -46 -28 -136q-16 -51 -37.5 -69t-60.5 -21q64 -21 64 -93q0 -59 -29 -156q-42 -139 -173 -139q-65 0 -102 29.5t-37 81.5q0 32 21 110h80q-17 -51 -17 -91q0 -52 61 -52q59 0 75 55q33 106 33 149q0 61 -75 61
q-13 0 -25 -1l19 79q12 -1 25 -1q63 0 85 40q13 23 24 64.5t11 71.5q0 54 -54 54q-35 0 -55 -32t-29 -102z" />
    <glyph glyph-name="four.tab" horiz-adv-x="375" 
d="M392 706l-103 -473h62l-15 -75h-63l-36 -158h-83l36 158h-182l20 97l241 451h123zM298 637l-203 -404h111z" />
    <glyph glyph-name="five.tab" horiz-adv-x="375" 
d="M430 706l-16 -76h-193l-37 -175q28 30 79 30q47 0 75 -27t28 -73q0 -31 -8 -68l-31 -150q-20 -97 -58.5 -136.5t-123.5 -39.5q-64 0 -100.5 30t-36.5 82q0 35 18 103h83l-7 -29q-7 -32 -7 -47q0 -61 66 -61q34 0 51.5 21t29.5 77l29 138q5 24 5 50q0 52 -54 52
q-31 0 -47.5 -18.5t-24.5 -64.5h-79l86 382h273z" />
    <glyph glyph-name="six.tab" horiz-adv-x="375" 
d="M412 539h-83q8 33 8 49q0 50 -59 50q-41 0 -59 -29q-14 -24 -31 -97l-24 -101q37 48 97 48q49 0 78.5 -29t29.5 -78q0 -32 -11 -76l-26 -111q-20 -88 -57 -131t-126 -43q-64 0 -98 29t-34 83q0 29 15 93l80 340q24 103 63 141t114 38q62 0 97.5 -29t35.5 -78
q0 -29 -10 -69zM245 164l31 132q5 23 5 36q0 25 -16 40.5t-42 15.5q-32 0 -52.5 -21.5t-33.5 -76.5l-26 -108q-9 -37 -9 -58q0 -56 61 -56q33 0 51.5 21.5t30.5 74.5z" />
    <glyph glyph-name="seven.tab" horiz-adv-x="375" 
d="M114 628l18 78h308l-15 -65q-57 -74 -107 -168q-56 -105 -104 -235q-38 -105 -71 -238h-95q19 86 46 161q25 71 58 145q64 143 163 292l20 30h-221z" />
    <glyph glyph-name="eight.tab" horiz-adv-x="376" 
d="M349 237l-25 -106q-17 -74 -55.5 -106.5t-107.5 -32.5q-68 0 -108 32.5t-40 87.5q0 18 10 65l25 111q9 40 36.5 65.5t67.5 30.5q-51 20 -51 72q0 15 6 42l21 90q15 64 51.5 95.5t105.5 31.5q65 0 104 -30.5t39 -80.5q0 -14 -9 -57l-18 -81q-19 -85 -99 -94q54 -26 54 -83
q0 -22 -7 -52zM321 485l17 74q4 19 4 31q0 26 -17 40.5t-47 14.5q-56 0 -70 -65l-16 -70q-7 -32 -7 -43q0 -25 16 -39t44 -14q60 0 76 71zM241 147l21 91q5 22 5 38q0 55 -66 55q-29 0 -46 -16t-25 -51l-21 -89q-9 -41 -9 -53q0 -25 18 -39.5t48 -14.5q31 0 48 18t27 61z
" />
    <glyph glyph-name="nine.tab" horiz-adv-x="375" 
d="M26 168h82q-7 -29 -7 -50q0 -23 15.5 -36.5t43.5 -13.5q39 0 58 30q13 20 31 96l24 102q-36 -48 -96 -48q-49 0 -78.5 29t-29.5 77q0 32 10 76l26 111q22 94 60.5 134t123.5 40q64 0 98 -29t34 -83q0 -25 -16 -92l-79 -340q-24 -103 -64.5 -141.5t-112.5 -38.5
q-62 0 -98 28.5t-36 78.5q0 26 11 70zM301 417l26 108q9 37 9 58q0 56 -61 56q-33 0 -52 -22t-31 -74l-30 -132q-5 -23 -5 -36q0 -26 15.5 -41.5t42.5 -15.5q31 0 51.5 21.5t34.5 77.5z" />
    <glyph glyph-name="i.dot" horiz-adv-x="165" 
d="M234 691l-24 -103h-80l24 103h80zM191 497l-115 -497h-80l114 497h81z" />
    <glyph glyph-name="zero.numerator" horiz-adv-x="254" 
d="M57 370l54 244q12 51 39.5 74.5t78.5 23.5q47 0 71 -21t24 -54q0 -16 -11 -65l-40 -182q-14 -66 -41.5 -98t-87.5 -32q-43 0 -67.5 19.5t-24.5 52.5q0 18 5 38zM177 600l-48 -216q-6 -24 -6 -36q0 -24 30 -24q21 0 30.5 10t16.5 40l44 200q7 32 7 47q0 28 -30 28
q-18 0 -27.5 -10t-16.5 -39z" />
    <glyph glyph-name="one.numerator" horiz-adv-x="254" 
d="M281 706l-103 -441h-68l79 338h-72l12 50h4q42 0 61 11.5t28 41.5h59z" />
    <glyph glyph-name="two.numerator" horiz-adv-x="254" 
d="M24 265l14 53l116 134q52 60 74 98.5t22 74.5q0 27 -27 27q-22 0 -33 -21q-8 -15 -24 -82h-60q17 81 32 109q29 54 93 54q41 0 64 -22t23 -61q0 -84 -100 -198l-91 -105h122l-15 -61h-210z" />
    <glyph glyph-name="three.numerator" horiz-adv-x="254" 
d="M140 469l15 54h7q32 0 47.5 13t23.5 42q10 30 10 47q0 28 -26 28q-37 0 -50 -73h-60q11 59 26 84q27 48 89 48q42 0 65 -19.5t23 -56.5q0 -34 -17 -78q-19 -50 -68 -59q42 -12 42 -59q0 -46 -27 -108q-29 -72 -105 -72q-45 0 -70.5 20.5t-25.5 55.5q0 20 13 63h67
q-9 -45 -9 -47q0 -28 31 -28q24 0 39 36q17 44 17 73q0 36 -42 36h-15z" />
    <glyph glyph-name="four.numerator" horiz-adv-x="254" 
d="M214 265h-66l23 94h-131l16 69l179 278h82l-67 -287h44l-15 -60h-43zM186 419l54 208l-121 -208h67z" />
    <glyph glyph-name="five.numerator" horiz-adv-x="254" 
d="M334 706l-15 -59h-128l-20 -92q22 20 55 20q67 0 67 -67q0 -21 -7 -54l-18 -82q-13 -60 -42 -86t-87 -26q-41 0 -65 21.5t-24 54.5q0 27 9 63h68q-8 -24 -8 -42q0 -19 8 -26.5t27 -7.5q34 0 43 39l19 85q6 30 6 36q0 27 -29 27q-32 0 -43 -42h-62l53 238h193z" />
    <glyph glyph-name="six.numerator" horiz-adv-x="254" 
d="M326 592h-65q5 18 5 31q0 32 -31 32q-20 0 -32 -13q-10 -12 -25 -66l-14 -52q24 30 65 30q65 0 65 -67q0 -19 -7 -48l-15 -69q-13 -58 -41 -84t-82 -26q-47 0 -70.5 20t-23.5 56q0 16 10 56l50 208q15 64 44.5 88t84.5 24q41 0 64.5 -18t23.5 -49q0 -27 -6 -53zM146 448
l-15 -62q-5 -23 -5 -35q0 -29 29 -29q21 0 31 10.5t18 42.5l16 66q4 18 4 27q0 31 -29 31q-21 0 -31.5 -10t-17.5 -41z" />
    <glyph glyph-name="seven.numerator" horiz-adv-x="254" 
d="M127 265h-73q66 232 219 382h-166l15 59h239l-15 -52q-142 -141 -219 -389z" />
    <glyph glyph-name="eight.numerator" horiz-adv-x="254" 
d="M152 514q-40 13 -40 50q0 22 6 48l9 34q17 66 107 66q40 0 63.5 -16t23.5 -46q0 -17 -5 -40l-6 -27q-14 -64 -72 -74q46 -10 46 -55q0 -19 -6 -43l-15 -65q-11 -46 -39.5 -66t-77.5 -20q-40 0 -66 18t-26 51q0 19 6 46l12 56q9 39 29 58t51 25zM186 623l-6 -25
q-3 -14 -3 -25q0 -25 27 -25q34 0 41 28q9 34 9 50q0 27 -30 27q-17 0 -25 -7t-13 -23zM201 370l11 50q4 20 4 29q0 26 -32 26q-18 0 -28.5 -9.5t-16.5 -37.5l-10 -47q-4 -22 -4 -28q0 -30 31 -30q18 0 28 10t17 37z" />
    <glyph glyph-name="nine.numerator" horiz-adv-x="254" 
d="M53 380h65q-5 -18 -5 -31q0 -32 31 -32q21 0 31.5 12t21.5 52l19 70q-20 -30 -65 -30q-65 0 -65 67q0 16 7 48l14 66q13 58 39.5 84t75.5 26q102 0 102 -66q0 -26 -10 -66l-50 -208q-16 -67 -45.5 -89.5t-83.5 -22.5q-41 0 -64.5 18t-23.5 49q0 28 6 53zM234 527l14 59
q5 23 5 35q0 29 -29 29q-21 0 -31 -10.5t-18 -42.5l-15 -63q-4 -18 -4 -27q0 -31 28 -31q21 0 32 10.5t18 40.5z" />
    <glyph glyph-name="period.numerator" horiz-adv-x="104" 
d="M116 349l-20 -84h-63l20 84h63z" />
    <glyph glyph-name="comma.numerator" horiz-adv-x="104" 
d="M53 349h63l-19 -81q-17 -72 -82 -88l7 33q17 6 25.5 17t12.5 35h-27z" />
    <glyph glyph-name="hyphen.numerator" horiz-adv-x="168" 
d="M213 482l-15 -61h-137l15 61h137z" />
    <glyph glyph-name="parenleft.numerator" horiz-adv-x="184" 
d="M252 744l29 -30q-69 -65 -108 -154.5t-39 -181.5q0 -103 31 -168l-37 -21q-56 104 -56 204q0 186 180 351z" />
    <glyph glyph-name="parenright.numerator" horiz-adv-x="184" 
d="M46 189l-29 30q69 65 108 154.5t39 181.5q0 103 -31 168l37 21q56 -104 56 -204q0 -186 -180 -351z" />
    <glyph glyph-name="dollar.numerator" horiz-adv-x="269" 
d="M329 574h-60q8 32 8 47q0 23 -19 27l-34 -137l22 -28q41 -51 41 -101q0 -56 -29.5 -88.5t-90.5 -34.5l-12 -52h-41l12 52q-76 13 -76 79q0 19 14 77h65q-13 -41 -13 -59q0 -32 23 -39l36 150l-33 45q-27 36 -27 77q0 51 29.5 85t85.5 34l13 52h40l-12 -52q68 -14 68 -72
q0 -26 -10 -62zM194 550l23 98q-17 -1 -27.5 -18t-10.5 -39q0 -19 15 -41zM206 426l-25 -112q18 1 29.5 20.5t11.5 42.5q0 29 -16 49z" />
    <glyph glyph-name="cent.numerator" horiz-adv-x="226" 
d="M265 459h-59q7 21 7 37q0 27 -21 27q-16 0 -24.5 -10t-16.5 -44l-19 -82q-8 -32 -8 -49q0 -25 23 -25q18 0 27.5 15.5t15.5 51.5h61q-11 -64 -31 -90t-65 -31l-13 -53h-42l14 55q-27 5 -43 21t-16 39t10 66l21 90q13 57 35 78.5t64 23.5l13 55h43l-14 -58q46 -11 46 -59
q0 -28 -8 -58z" />
    <glyph glyph-name="sterling.numerator" horiz-adv-x="311" 
d="M350 563h-63q8 29 8 46q0 41 -43 41q-30 0 -42 -17.5t-12 -57.5q0 -23 8 -75h86l-11 -46h-70q1 -15 1 -32q0 -53 -23 -89q21 -15 40 -15q22 0 30 19.5t15 71.5h60q-6 -77 -29 -113.5t-78 -36.5q-39 0 -70 30q-31 -28 -70 -28q-26 0 -41 15.5t-15 37.5q0 26 16.5 42
t45.5 16q26 0 46 -14q11 26 11 57q0 19 -4 39h-61l10 46h46q-9 59 -9 76q0 134 124 134q49 0 75.5 -21.5t26.5 -62.5q0 -32 -8 -63zM117 320q-14 10 -26 10q-16 0 -16 -14q0 -13 14 -13q12 0 28 17z" />
    <glyph glyph-name="yen.numerator" horiz-adv-x="270" 
d="M388 703l-132 -210h52l-9 -41h-67l-10 -17l-4 -17h73l-9 -40h-73l-27 -113h-65l26 113h-72l9 40h72l5 17l-2 17h-67l9 41h51l-30 210h72l13 -195l111 195h74z" />
    <glyph glyph-name="florin.numerator" horiz-adv-x="194" 
d="M286 708l-12 -57q-16 2 -23 2q-14 0 -21 -7.5t-12 -30.5l-8 -36h49l-12 -47h-48l-58 -265q-12 -54 -31 -71t-58 -17q-23 0 -41 3l12 60q16 -2 24 -2q13 0 19 6t10 27l58 259h-38l12 47h37l15 68q7 36 26.5 50.5t58.5 14.5q21 0 41 -4z" />
    <glyph glyph-name="Euro.numerator" horiz-adv-x="278" 
d="M371 675l-29 -61q-33 37 -73 37q-28 0 -44.5 -19t-30.5 -85h122l-18 -41h-113l-7 -34h107l-16 -40h-98q-7 -35 -7 -70q0 -44 45 -44q46 0 93 37l-17 -75q-43 -22 -96 -22q-44 0 -68 22.5t-24 63.5q0 34 9 88h-37l16 40h28l7 34h-36l16 41h29l6 26q20 81 52 110
q31 28 86 28q60 0 98 -36z" />
    <glyph glyph-name="zero.denominator" horiz-adv-x="254" 
d="M-5 105l56 248q12 51 39.5 74.5t78.5 23.5q47 0 71 -21t24 -54q0 -16 -11 -65l-42 -186q-14 -66 -41.5 -98t-87.5 -32q-43 0 -67.5 19.5t-24.5 52.5q0 18 5 38zM117 339l-50 -220q-6 -24 -6 -37q0 -23 31 -23q20 0 29.5 10t16.5 40l46 204q7 32 7 47q0 28 -30 28
q-18 0 -27.5 -10t-16.5 -39z" />
    <glyph glyph-name="one.denominator" horiz-adv-x="254" 
d="M223 441l-103 -441h-68l79 338h-72l12 50h4q42 0 61 11.5t28 41.5h59z" />
    <glyph glyph-name="two.denominator" horiz-adv-x="254" 
d="M-28 0l14 53l116 134q52 60 74 98.5t22 74.5q0 27 -27 27q-22 0 -33 -21q-8 -15 -24 -82h-60q17 81 32 109q29 54 93 54q41 0 64 -22t23 -61q0 -84 -100 -198l-91 -105h122l-15 -61h-210z" />
    <glyph glyph-name="three.denominator" horiz-adv-x="254" 
d="M92 204l15 54h7q32 0 47.5 13t23.5 42q10 30 10 47q0 28 -26 28q-37 0 -50 -73h-60q11 59 26 84q27 48 89 48q42 0 65 -19.5t23 -56.5q0 -34 -17 -78q-19 -50 -68 -59q42 -12 42 -59q0 -46 -27 -108q-29 -72 -105 -72q-45 0 -70.5 20.5t-25.5 55.5q0 20 13 63h67
q-9 -45 -9 -47q0 -28 31 -28q24 0 39 36q17 44 17 73q0 36 -42 36h-15z" />
    <glyph glyph-name="four.denominator" horiz-adv-x="254" 
d="M152 0h-66l23 94h-131l16 69l179 278h82l-67 -287h44l-15 -60h-43zM124 154l54 208l-121 -208h67z" />
    <glyph glyph-name="five.denominator" horiz-adv-x="254" 
d="M272 441l-15 -59h-128l-20 -92q22 20 55 20q67 0 67 -67q0 -21 -7 -54l-18 -82q-13 -60 -42 -86t-87 -26q-41 0 -65 21.5t-24 54.5q0 27 9 63h68q-8 -24 -8 -42q0 -19 8 -26.5t27 -7.5q34 0 43 39l19 85q6 30 6 36q0 27 -29 27q-32 0 -43 -42h-62l53 238h193z" />
    <glyph glyph-name="six.denominator" horiz-adv-x="254" 
d="M254 327h-65q5 17 5 31q0 32 -31 32q-20 0 -32 -13q-10 -12 -25 -66l-14 -52q24 30 65 30q65 0 65 -67q0 -19 -7 -48l-15 -69q-13 -58 -41 -84t-82 -26q-47 0 -70.5 20t-23.5 56q0 16 10 56l50 208q15 64 44.5 88t84.5 24q41 0 64.5 -18t23.5 -49q0 -27 -6 -53zM74 183
l-15 -62q-5 -23 -5 -35q0 -29 29 -29q21 0 31 10.5t18 42.5l16 66q4 18 4 27q0 31 -29 31q-21 0 -31.5 -10t-17.5 -41z" />
    <glyph glyph-name="seven.denominator" horiz-adv-x="254" 
d="M65 0h-73q66 232 219 382h-166l15 59h239l-15 -52q-142 -141 -219 -389z" />
    <glyph glyph-name="eight.denominator" horiz-adv-x="254" 
d="M90 249q-40 13 -40 50q0 23 6 48l9 34q17 66 107 66q40 0 63.5 -16t23.5 -46q0 -17 -5 -40l-6 -27q-14 -64 -72 -74q46 -10 46 -55q0 -19 -6 -43l-15 -65q-11 -46 -39.5 -66t-77.5 -20q-40 0 -66 18t-26 51q0 19 6 46l12 56q9 39 29 58t51 25zM124 358l-6 -25
q-3 -13 -3 -25q0 -25 27 -25q34 0 41 28q9 34 9 50q0 27 -30 27q-17 0 -25 -7t-13 -23zM139 105l11 50q4 20 4 29q0 26 -32 26q-18 0 -28.5 -9.5t-16.5 -37.5l-10 -47q-4 -22 -4 -28q0 -30 31 -30q18 0 28 10t17 37z" />
    <glyph glyph-name="nine.denominator" horiz-adv-x="254" 
d="M-6 115h65q-5 -17 -5 -31q0 -32 31 -32q21 0 31.5 12t21.5 52l19 70q-20 -30 -65 -30q-65 0 -65 67q0 16 7 48l14 66q13 58 39.5 84t75.5 26q102 0 102 -66q0 -26 -10 -66l-50 -208q-16 -67 -45.5 -89.5t-83.5 -22.5q-41 0 -64.5 18t-23.5 49q0 28 6 53zM175 262l14 59
q5 23 5 35q0 29 -29 29q-21 0 -31 -10.5t-18 -42.5l-15 -63q-4 -18 -4 -27q0 -31 28 -31q21 0 32 10.5t18 40.5z" />
    <glyph glyph-name="period.denominator" horiz-adv-x="104" 
d="M57 84l-20 -84h-63l20 84h63z" />
    <glyph glyph-name="comma.denominator" horiz-adv-x="104" 
d="M-6 84h63l-19 -81q-17 -72 -82 -88l7 33q17 6 25.5 17t12.5 35h-27z" />
    <glyph glyph-name="hyphen.denominator" horiz-adv-x="168" 
d="M154 217l-15 -61h-137l15 61h137z" />
    <glyph glyph-name="parenleft.denominator" horiz-adv-x="184" 
d="M192 479l29 -30q-69 -65 -108 -154.5t-39 -181.5q0 -103 31 -168l-37 -21q-56 104 -56 204q0 186 180 351z" />
    <glyph glyph-name="parenright.denominator" horiz-adv-x="184" 
d="M-16 -76l-29 30q69 65 108 154.5t39 181.5q0 103 -31 168l37 21q56 -104 56 -204q0 -186 -180 -351z" />
    <glyph glyph-name="dollar.denominator" horiz-adv-x="269" 
d="M269 309h-60q8 32 8 47q0 23 -19 27l-34 -137l22 -28q41 -51 41 -101q0 -56 -29.5 -88.5t-90.5 -34.5l-12 -52h-41l12 52q-76 13 -76 79q0 19 14 77h65q-13 -41 -13 -59q0 -32 23 -39l36 150l-33 45q-27 36 -27 77q0 51 29.5 85t85.5 34l13 52h40l-12 -52q68 -14 68 -72
q0 -26 -10 -62zM134 285l23 98q-17 -1 -27.5 -18t-10.5 -39q0 -19 15 -41zM146 161l-25 -112q18 1 29.5 20.5t11.5 42.5q0 29 -16 49z" />
    <glyph glyph-name="cent.denominator" horiz-adv-x="226" 
d="M203 194h-59q7 21 7 37q0 27 -21 27q-16 0 -24.5 -10t-16.5 -44l-19 -82q-8 -32 -8 -49q0 -25 23 -25q18 0 27.5 15.5t15.5 51.5h61q-11 -64 -31 -90t-65 -31l-13 -53h-42l14 55q-27 5 -43 21t-16 39t10 66l21 90q13 57 35 78.5t64 23.5l13 55h43l-14 -58q46 -11 46 -59
q0 -28 -8 -58z" />
    <glyph glyph-name="sterling.denominator" horiz-adv-x="321" 
d="M300 298h-63q8 29 8 46q0 41 -43 41q-30 0 -42 -17.5t-12 -57.5q0 -23 8 -75h86l-11 -46h-70q1 -15 1 -32q0 -53 -23 -89q21 -15 40 -15q22 0 30 19.5t15 71.5h60q-6 -77 -29 -113.5t-78 -36.5q-39 0 -70 30q-31 -28 -70 -28q-26 0 -41 15.5t-15 37.5q0 26 16.5 42
t45.5 16q26 0 46 -14q11 26 11 57q0 19 -4 39h-61l10 46h46q-9 59 -9 76q0 134 124 134q49 0 75.5 -21.5t26.5 -62.5q0 -32 -8 -63zM67 55q-14 10 -26 10q-16 0 -16 -14q0 -13 14 -13q12 0 28 17z" />
    <glyph glyph-name="yen.denominator" horiz-adv-x="271" 
d="M322 438l-132 -210h52l-9 -41h-67l-10 -17l-4 -17h73l-9 -40h-73l-27 -113h-65l26 113h-72l9 40h72l5 17l-2 17h-67l9 41h51l-30 210h72l13 -195l111 195h74z" />
    <glyph glyph-name="florin.denominator" horiz-adv-x="194" 
d="M229 443l-12 -57q-16 2 -23 2q-14 0 -21 -7.5t-12 -30.5l-8 -36h49l-12 -47h-48l-58 -265q-12 -54 -31 -71t-58 -17q-23 0 -41 3l12 60q16 -2 24 -2q13 0 19 6t10 27l58 259h-38l12 47h37l15 68q7 36 26.5 50.5t58.5 14.5q21 0 41 -4z" />
    <glyph glyph-name="Euro.denominator" horiz-adv-x="278" 
d="M309 410l-29 -61q-33 37 -73 37q-28 0 -44.5 -19t-30.5 -85h122l-18 -41h-113l-7 -34h107l-16 -40h-98q-7 -35 -7 -70q0 -44 45 -44q46 0 93 37l-17 -75q-43 -22 -96 -22q-44 0 -68 22.5t-24 63.5q0 34 9 88h-37l16 40h28l7 34h-36l16 41h29l6 26q20 81 52 110
q31 28 86 28q60 0 98 -36z" />
    <glyph glyph-name="one.superior" horiz-adv-x="254" 
d="M321 856l-103 -441h-68l79 338h-72l12 50h4q42 0 61 11.5t28 41.5h59z" />
    <glyph glyph-name="two.superior" horiz-adv-x="254" 
d="M60 415l14 53l116 134q52 60 74 98.5t22 74.5q0 27 -27 27q-22 0 -33 -21q-8 -15 -24 -82h-60q17 81 32 109q29 54 93 54q41 0 64 -22t23 -61q0 -84 -100 -198l-91 -105h122l-15 -61h-210z" />
    <glyph glyph-name="three.superior" horiz-adv-x="254" 
d="M182 619l15 54h7q32 0 47.5 13t23.5 42q10 30 10 47q0 28 -26 28q-37 0 -50 -73h-60q11 59 26 84q27 48 89 48q42 0 65 -19.5t23 -56.5q0 -34 -17 -78q-19 -50 -68 -59q42 -12 42 -59q0 -46 -27 -108q-29 -72 -105 -72q-45 0 -70.5 20.5t-25.5 55.5q0 20 13 63h67
q-9 -45 -9 -47q0 -28 31 -28q24 0 39 36q17 44 17 73q0 36 -42 36h-15z" />
    <glyph glyph-name="period.superior" horiz-adv-x="104" 
d="M150 499l-20 -84h-63l20 84h63z" />
    <glyph glyph-name="comma.superior" horiz-adv-x="104" 
d="M87 499h63l-19 -81q-17 -72 -82 -88l7 33q17 6 25.5 17t12.5 35h-27z" />
    <glyph glyph-name="hyphen.superior" horiz-adv-x="168" 
d="M247 632l-15 -61h-137l15 61h137z" />
    <glyph glyph-name="dollar.superior" horiz-adv-x="269" 
d="M363 724h-60q8 32 8 47q0 23 -19 27l-34 -137l22 -28q41 -51 41 -101q0 -56 -29.5 -88.5t-90.5 -34.5l-12 -52h-41l12 52q-76 13 -76 79q0 19 14 77h65q-13 -41 -13 -59q0 -32 23 -39l36 150l-33 45q-27 36 -27 77q0 51 29.5 85t85.5 34l13 52h40l-12 -52q68 -14 68 -72
q0 -26 -10 -62zM228 700l23 98q-17 -1 -27.5 -18t-10.5 -39q0 -19 15 -41zM240 576l-25 -112q18 1 29.5 20.5t11.5 42.5q0 29 -16 49z" />
    <glyph glyph-name="cent.superior" horiz-adv-x="226" 
d="M299 609h-59q7 21 7 37q0 27 -21 27q-16 0 -24.5 -10t-16.5 -44l-19 -82q-8 -32 -8 -49q0 -25 23 -25q18 0 27.5 15.5t15.5 51.5h61q-11 -64 -31 -90t-65 -31l-13 -53h-42l14 55q-27 5 -43 21t-16 39t10 66l21 90q13 57 35 78.5t64 23.5l13 55h43l-14 -58q46 -11 46 -59
q0 -28 -8 -58z" />
    <glyph glyph-name="sterling.superior" horiz-adv-x="311" 
d="M384 713h-63q8 29 8 46q0 41 -43 41q-30 0 -42 -17.5t-12 -57.5q0 -23 8 -75h86l-11 -46h-70q1 -15 1 -32q0 -53 -23 -89q21 -15 40 -15q22 0 30 19.5t15 71.5h60q-6 -77 -29 -113.5t-78 -36.5q-39 0 -70 30q-31 -28 -70 -28q-26 0 -41 15.5t-15 37.5q0 26 16.5 42
t45.5 16q26 0 46 -14q11 26 11 57q0 19 -4 39h-61l10 46h46q-9 59 -9 76q0 134 124 134q49 0 75.5 -21.5t26.5 -62.5q0 -32 -8 -63zM151 470q-14 10 -26 10q-16 0 -16 -14q0 -13 14 -13q12 0 28 17z" />
    <glyph glyph-name="yen.superior" horiz-adv-x="270" 
d="M422 853l-132 -210h52l-9 -41h-67l-10 -17l-4 -17h73l-9 -40h-73l-27 -113h-65l26 113h-72l9 40h72l5 17l-2 17h-67l9 41h51l-30 210h72l13 -195l111 195h74z" />
    <glyph glyph-name="florin.superior" horiz-adv-x="194" 
d="M320 858l-12 -57q-16 2 -23 2q-14 0 -21 -7.5t-12 -30.5l-8 -36h49l-12 -47h-48l-58 -265q-12 -54 -31 -71t-58 -17q-23 0 -41 3l12 60q16 -2 24 -2q13 0 19 6t10 27l58 259h-38l12 47h37l15 68q7 36 26.5 50.5t58.5 14.5q21 0 41 -4z" />
    <glyph glyph-name="Euro.superior" horiz-adv-x="278" 
d="M405 825l-29 -61q-33 37 -73 37q-28 0 -44.5 -19t-30.5 -85h122l-18 -41h-113l-7 -34h107l-16 -40h-98q-7 -35 -7 -70q0 -44 45 -44q46 0 93 37l-17 -75q-43 -22 -96 -22q-44 0 -68 22.5t-24 63.5q0 34 9 88h-37l16 40h28l7 34h-36l16 41h29l6 26q20 81 52 110
q32 28 86 28q60 0 98 -36z" />
    <glyph glyph-name="period.inferior" horiz-adv-x="104" 
d="M23 -66l-20 -84h-63l20 84h63z" />
    <glyph glyph-name="comma.inferior" horiz-adv-x="104" 
d="M-40 -66h63l-19 -81q-17 -72 -82 -88l7 33q17 6 25.5 17t12.5 35h-27z" />
    <glyph glyph-name="hyphen.inferior" horiz-adv-x="168" 
d="M120 67l-15 -61h-137l15 61h137z" />
    <glyph glyph-name="dollar.inferior" horiz-adv-x="269" 
d="M235 159h-60q8 32 8 47q0 23 -19 27l-34 -137l22 -28q41 -51 41 -101q0 -56 -29.5 -88.5t-90.5 -34.5l-12 -52h-41l12 52q-76 13 -76 79q0 19 14 77h65q-13 -41 -13 -59q0 -32 23 -39l36 150l-33 45q-27 36 -27 77q0 51 29.5 85t85.5 34l13 52h40l-12 -52q68 -14 68 -72
q0 -26 -10 -62zM100 135l23 98q-17 -1 -27.5 -18t-10.5 -39q0 -19 15 -41zM112 11l-25 -112q18 1 29.5 20.5t11.5 42.5q0 29 -16 49z" />
    <glyph glyph-name="cent.inferior" horiz-adv-x="226" 
d="M169 44h-59q7 21 7 37q0 27 -21 27q-16 0 -24.5 -10t-16.5 -44l-19 -82q-8 -32 -8 -49q0 -25 23 -25q18 0 27.5 15.5t15.5 51.5h61q-11 -64 -31 -90t-65 -31l-13 -53h-42l14 55q-27 5 -43 21t-16 39t10 66l21 90q13 57 35 78.5t64 23.5l13 55h43l-14 -58q46 -11 46 -59
q0 -28 -8 -58z" />
    <glyph glyph-name="sterling.inferior" horiz-adv-x="321" 
d="M266 148h-63q8 29 8 46q0 41 -43 41q-30 0 -42 -17.5t-12 -57.5q0 -23 8 -75h86l-11 -46h-70q1 -15 1 -32q0 -53 -23 -89q21 -15 40 -15q22 0 30 19.5t15 71.5h60q-6 -77 -29 -113.5t-78 -36.5q-39 0 -70 30q-31 -28 -70 -28q-26 0 -41 15.5t-15 37.5q0 26 16.5 42
t45.5 16q26 0 46 -14q11 26 11 57q0 19 -4 39h-61l10 46h46q-9 59 -9 76q0 134 124 134q49 0 75.5 -21.5t26.5 -62.5q0 -32 -8 -63zM33 -95q-14 10 -26 10q-16 0 -16 -14q0 -13 14 -13q12 0 28 17z" />
    <glyph glyph-name="yen.inferior" horiz-adv-x="271" 
d="M288 288l-132 -210h52l-9 -41h-67l-10 -17l-4 -17h73l-9 -40h-73l-27 -113h-65l26 113h-72l9 40h72l5 17l-2 17h-67l9 41h51l-30 210h72l13 -195l111 195h74z" />
    <glyph glyph-name="florin.inferior" horiz-adv-x="194" 
d="M195 293l-12 -57q-16 2 -23 2q-14 0 -21 -7.5t-12 -30.5l-8 -36h49l-12 -47h-48l-58 -265q-12 -54 -31 -71t-58 -17q-23 0 -41 3l12 60q16 -2 24 -2q13 0 19 6t10 27l58 259h-38l12 47h37l15 68q7 36 26.5 50.5t58.5 14.5q21 0 41 -4z" />
    <glyph glyph-name="Euro.inferior" horiz-adv-x="278" 
d="M275 260l-29 -61q-33 37 -73 37q-28 0 -44.5 -19t-30.5 -85h122l-18 -41h-113l-7 -34h107l-16 -40h-98q-7 -35 -7 -70q0 -44 45 -44q46 0 93 37l-17 -75q-43 -22 -96 -22q-44 0 -68 22.5t-24 63.5q0 34 9 88h-37l16 40h28l7 34h-36l16 41h29l6 26q20 81 52 110
q31 28 86 28q60 0 98 -36z" />
    <glyph glyph-name="zero.fitted" horiz-adv-x="375" 
d="M408 494l-68 -297q-13 -51 -16 -62q-40 -144 -177 -144q-61 0 -98.5 32.5t-37.5 85.5q0 24 7 57l93 403q43 147 175 147q62 0 101 -33t39 -85q0 -26 -18 -104zM252 195l72 316q11 49 11 70q0 26 -15.5 40.5t-43.5 14.5q-39 0 -60 -30q-14 -22 -31 -94l-73 -317
q-11 -48 -11 -68q0 -56 60 -56q39 0 60 30q15 24 31 94z" />
    <glyph glyph-name="one.fitted" horiz-adv-x="315" 
d="M334 706l-164 -706h-88l128 554h-117l16 67h6q69 0 100 18t45 67h74z" />
    <glyph glyph-name="two.fitted" horiz-adv-x="355" 
d="M276 0h-309l20 85l176 213q85 103 116 156q37 66 37 123q0 27 -14.5 42.5t-40.5 15.5q-15 0 -26.5 -4.5t-20 -15.5t-14.5 -21.5t-11.5 -30t-9 -32.5t-8.5 -38.5t-8 -38.5h-81q10 52 19 87t23.5 71t33.5 56.5t47.5 33.5t65.5 13q63 0 98 -34.5t35 -98.5q0 -125 -151 -305
l-169 -201h210z" />
    <glyph glyph-name="three.fitted" horiz-adv-x="358" 
d="M173 505h-79q16 104 55 157.5t121 53.5q127 0 127 -113q0 -46 -28 -136q-16 -51 -37.5 -69t-60.5 -21q64 -21 64 -93q0 -59 -29 -156q-42 -139 -173 -139q-65 0 -102 29.5t-37 81.5q0 32 21 110h80q-17 -51 -17 -91q0 -52 61 -52q59 0 75 55q33 106 33 149q0 61 -75 61
q-13 0 -25 -1l19 79q12 -1 25 -1q63 0 85 40q13 23 24 64.5t11 71.5q0 54 -54 54q-35 0 -55 -32t-29 -102z" />
    <glyph glyph-name="four.fitted" horiz-adv-x="373" 
d="M397 706l-103 -473h62l-15 -75h-63l-36 -158h-83l36 158h-182l20 97l241 451h123zM303 637l-203 -404h111z" />
    <glyph glyph-name="five.fitted" horiz-adv-x="370" 
d="M425 706l-16 -76h-193l-37 -175q29 30 79 30q47 0 75 -27t28 -73q0 -31 -8 -68l-31 -150q-20 -97 -58.5 -136.5t-123.5 -39.5q-64 0 -100.5 30t-36.5 82q0 35 18 103h83l-7 -29q-7 -32 -7 -47q0 -61 66 -61q34 0 51.5 21t29.5 77l29 138q5 24 5 50q0 52 -54 52
q-31 0 -47.5 -18.5t-24.5 -64.5h-79l86 382h273z" />
    <glyph glyph-name="six.fitted" horiz-adv-x="375" 
d="M412 539h-83q8 33 8 49q0 50 -59 50q-41 0 -59 -29q-14 -24 -31 -97l-24 -101q37 48 97 48q49 0 78.5 -29t29.5 -78q0 -32 -11 -76l-26 -111q-20 -88 -57 -131t-126 -43q-64 0 -98 29t-34 83q0 29 15 93l80 340q24 103 63 141t114 38q62 0 97.5 -29t35.5 -78
q0 -29 -10 -69zM245 164l31 132q5 23 5 36q0 25 -16 40.5t-42 15.5q-32 0 -52.5 -21.5t-33.5 -76.5l-26 -108q-9 -37 -9 -58q0 -56 61 -56q33 0 51.5 21.5t30.5 74.5z" />
    <glyph glyph-name="seven.fitted" horiz-adv-x="304" 
d="M77 628l18 78h308l-15 -65q-57 -74 -107 -168q-56 -105 -104 -235q-38 -105 -71 -238h-95q19 86 46 161q25 71 58 145q64 143 163 292l20 30h-221z" />
    <glyph glyph-name="eight.fitted" horiz-adv-x="376" 
d="M347 237l-25 -106q-17 -74 -55.5 -106.5t-107.5 -32.5q-68 0 -108 32.5t-40 87.5q0 18 10 65l25 111q9 40 36.5 65.5t67.5 30.5q-51 20 -51 72q0 15 6 42l21 90q15 64 51.5 95.5t105.5 31.5q65 0 104 -30.5t39 -80.5q0 -14 -9 -57l-18 -81q-19 -85 -99 -94q54 -26 54 -83
q0 -22 -7 -52zM319 485l17 74q4 19 4 31q0 26 -17 40.5t-47 14.5q-56 0 -70 -65l-16 -70q-7 -32 -7 -43q0 -25 16 -39t44 -14q60 0 76 71zM239 147l21 91q5 22 5 38q0 55 -66 55q-29 0 -46 -16t-25 -51l-21 -89q-9 -41 -9 -53q0 -25 18 -39.5t48 -14.5q31 0 48 18t27 61z
" />
    <glyph glyph-name="nine.fitted" horiz-adv-x="375" 
d="M26 168h82q-7 -29 -7 -50q0 -23 15.5 -36.5t43.5 -13.5q39 0 58 30q13 20 31 96l24 102q-36 -48 -96 -48q-49 0 -78.5 29t-29.5 77q0 32 10 76l26 111q22 94 60.5 134t123.5 40q64 0 98 -29t34 -83q0 -25 -16 -92l-79 -340q-24 -103 -64.5 -141.5t-112.5 -38.5
q-62 0 -98 28.5t-36 78.5q0 26 11 70zM301 417l26 108q9 37 9 58q0 56 -61 56q-33 0 -52 -22t-31 -74l-30 -132q-5 -23 -5 -36q0 -26 15.5 -41.5t42.5 -15.5q31 0 51.5 21.5t34.5 77.5z" />
    <glyph glyph-name="onefifth" horiz-adv-x="625" 
d="M572 706l-476 -706h-49l477 706h48zM630 441l-15 -59h-128l-20 -91q18 19 55 19q67 0 67 -67q0 -21 -7 -54l-18 -82q-13 -60 -42 -86t-87 -26q-41 0 -65 21.5t-24 54.5q0 27 9 63h68q-8 -24 -8 -42q0 -19 8 -26.5t27 -7.5q34 0 43 39l21 94q3 17 3 29q0 25 -28 25
q-32 0 -43 -42h-62l53 238h193zM271 706l-103 -441h-68l79 338h-72l12 50h4q42 0 61 11.5t28 41.5h59z" />
    <glyph glyph-name="twofifths" horiz-adv-x="625" 
d="M607 706l-476 -706h-49l477 706h48zM650 441l-15 -59h-128l-20 -91q18 19 55 19q67 0 67 -67q0 -21 -7 -54l-18 -82q-13 -60 -42 -86t-87 -26q-41 0 -65 21.5t-24 54.5q0 27 9 63h68q-8 -24 -8 -42q0 -19 8 -26.5t27 -7.5q34 0 43 39l21 94q3 17 3 29q0 25 -28 25
q-32 0 -43 -42h-62l53 238h193zM29 265l14 53l116 134q52 60 74 98.5t22 74.5q0 27 -27 27q-22 0 -33 -21q-8 -15 -24 -82h-60q17 81 32 109q29 54 93 54q41 0 64 -22t23 -61q0 -84 -100 -198l-91 -105h122l-15 -61h-210z" />
    <glyph glyph-name="threefifths" horiz-adv-x="625" 
d="M596 706l-476 -706h-49l477 706h48zM641 441l-15 -59h-128l-20 -91q18 19 55 19q67 0 67 -67q0 -21 -7 -54l-18 -82q-13 -60 -42 -86t-87 -26q-41 0 -65 21.5t-24 54.5q0 27 9 63h68q-8 -24 -8 -42q0 -19 8 -26.5t27 -7.5q34 0 43 39l21 94q3 17 3 29q0 25 -28 25
q-32 0 -43 -42h-62l53 238h193zM145 469l15 54h7q32 0 47.5 13t23.5 42q10 30 10 47q0 28 -26 28q-37 0 -50 -73h-60q11 59 26 84q27 48 89 48q42 0 65 -19.5t23 -56.5q0 -34 -17 -78q-19 -50 -68 -59q42 -12 42 -59q0 -46 -27 -108q-29 -72 -105 -72q-45 0 -70.5 20.5
t-25.5 55.5q0 20 13 63h67q-9 -45 -9 -47q0 -28 31 -28q24 0 39 36q17 44 17 73q0 36 -42 36h-15z" />
    <glyph glyph-name="fourfifths" horiz-adv-x="625" 
d="M602 706l-476 -706h-49l477 706h48zM644 441l-15 -59h-128l-20 -91q18 19 55 19q67 0 67 -67q0 -21 -7 -54l-18 -82q-13 -60 -42 -86t-87 -26q-41 0 -65 21.5t-24 54.5q0 27 9 63h68q-8 -24 -8 -42q0 -19 8 -26.5t27 -7.5q34 0 43 39l21 94q3 17 3 29q0 25 -28 25
q-32 0 -43 -42h-62l53 238h193zM214 265h-66l23 94h-131l16 69l179 278h82l-67 -287h44l-15 -60h-43zM186 419l54 208l-121 -208h67z" />
    <glyph glyph-name="braceleft.cap" horiz-adv-x="302" 
d="M414 788l-13 -58h-17q-21 0 -35.5 -5t-23 -10.5t-15.5 -23.5t-10 -29t-10 -41l-33 -149q-14 -65 -39 -94.5t-74 -40.5q57 -20 57 -80q0 -26 -7 -58l-31 -138q-12 -57 -12 -65q0 -44 56 -44h16l-13 -58h-41q-48 0 -75.5 25.5t-27.5 70.5q0 20 13 77l31 137q8 32 8 51
q0 26 -15.5 38t-53.5 17l14 60q56 5 75.5 23t34.5 83l32 145q10 46 19 72t26 50.5t44.5 34.5t68.5 10h51z" />
    <glyph glyph-name="braceright.cap" horiz-adv-x="302" 
d="M157 788h41q49 0 76.5 -24.5t27.5 -71.5q0 -20 -13 -77l-31 -137q-8 -40 -8 -51q0 -26 15 -38.5t53 -16.5l-14 -60q-56 -6 -76 -23.5t-34 -82.5l-31 -145q-10 -45 -19 -71.5t-26.5 -51t-45 -34.5t-68.5 -10h-51l13 58h17q21 0 35.5 5t23 10.5t15.5 23.5t10 29t10 41
l34 149q15 66 39 95.5t73 39.5q-57 20 -57 80q0 21 8 58l31 138q11 49 11 65q0 44 -56 44h-16z" />
    <glyph glyph-name="bracketleft.cap" horiz-adv-x="313" 
d="M420 786l-14 -61h-106l-178 -766h107l-15 -62h-191l206 889h191z" />
    <glyph glyph-name="bracketright.cap" horiz-adv-x="313" 
d="M347 786l-206 -888h-190l13 60h107l177 766h-106l15 62h190z" />
    <glyph glyph-name="emdash.cap" horiz-adv-x="567" 
d="M581 386l-18 -78h-517l18 78h517z" />
    <glyph glyph-name="endash.cap" horiz-adv-x="370" 
d="M384 386l-18 -78h-320l18 78h320z" />
    <glyph glyph-name="guillemotleft.cap" horiz-adv-x="354" 
d="M398 544l-29 -127l-93 -76l54 -91l-24 -106l-103 164l20 86zM236 544l-29 -127l-92 -76l53 -91l-24 -106l-103 164l20 86z" />
    <glyph glyph-name="guillemotright.cap" horiz-adv-x="354" 
d="M379 384l-20 -86l-175 -150l29 127l93 76l-54 90l24 107zM217 384l-20 -86l-175 -150l29 127l93 76l-53 90l24 107z" />
    <glyph glyph-name="guilsinglleft.cap" horiz-adv-x="192" 
d="M236 544l-29 -127l-92 -76l53 -91l-24 -106l-103 164l20 86z" />
    <glyph glyph-name="guilsinglright.cap" horiz-adv-x="192" 
d="M217 384l-20 -86l-175 -150l29 127l93 76l-53 90l24 107z" />
    <glyph glyph-name="hyphen.cap" horiz-adv-x="266" 
d="M280 386l-18 -78h-216l18 78h216z" />
    <glyph glyph-name="parenleft.cap" horiz-adv-x="297" 
d="M367 788l34 -41q-69 -73 -105.5 -125t-68.5 -129q-64 -154 -64 -299q0 -149 54 -268l-50 -34q-87 165 -87 329q0 171 90 329q26 44 64 93q49 65 133 145z" />
    <glyph glyph-name="parenright.cap" horiz-adv-x="297" 
d="M130 755l50 33q86 -166 86 -329q0 -174 -90 -328q-24 -43 -63 -94q-53 -69 -133 -145l-35 42q66 62 104 118t71 135q64 156 64 300q0 149 -54 268z" />
    <glyph glyph-name="periodcentered.cap" horiz-adv-x="167" 
d="M171 397l-27 -118h-86l27 118h86z" />
    <glyph glyph-name="afii10066.locl" horiz-adv-x="354" 
d="M349 332l-47 -201q-18 -77 -54.5 -108.5t-102.5 -31.5q-62 0 -95 27t-33 78q0 29 10 73l42 181q29 130 124 141q-57 37 -57 94q0 49 29 73t77 24h78q27 0 30 24h83q-4 -52 -27 -78.5t-82 -26.5h-70q-23 0 -32.5 -6t-9.5 -22q0 -15 15 -28t36 -25.5t42.5 -28.5t36.5 -43.5
t15 -62.5q0 -17 -8 -53zM222 134l46 204q6 27 6 42q0 50 -52 50q-29 0 -45 -17t-27 -67l-44 -201q-7 -33 -7 -46q0 -46 53 -46q29 0 44.5 18t25.5 63z" />
    <glyph glyph-name="afii10068.locl" horiz-adv-x="165" 
d="M255 575h-171l12 64h171zM191 497l-115 -497h-80l114 497h81z" />
    <glyph glyph-name="afii10069.locl" horiz-adv-x="417" 
d="M321 497h74l-123 -526q-33 -139 -169 -139q-55 0 -89 27.5t-34 72.5q0 12 3 28h75q-2 -7 -2 -15q0 -49 54 -49q23 0 39.5 8t25.5 25t12 26.5t8 29.5l11 46q-35 -34 -85 -34t-76.5 26.5t-26.5 76.5q0 24 12 77l38 162q20 86 54.5 126t94.5 40q64 0 94 -53zM246 196l28 121
q12 49 12 69q0 27 -14.5 42t-40.5 15q-32 0 -49.5 -22t-36.5 -101l-30 -125q-14 -60 -14 -81q0 -52 52 -52q39 0 58 30.5t35 103.5z" />
    </font>
</defs>
</svg>
