<?xml version="1.0" standalone="no"?>
<!DOCTYPE svg PUBLIC "-//W3C//DTD SVG 1.1//EN" "http://www.w3.org/Graphics/SVG/1.1/DTD/svg11.dtd" >
<svg xmlns="http://www.w3.org/2000/svg" xmlns:xlink="http://www.w3.org/1999/xlink" version="1.1">
<metadata>
Created by FontForge 20170731 at Thu Apr 12 20:19:38 2007
 By Aleksey,,,
(c) Copyright 2006, 2007 Berthold LLC. All Rights Reserved. This font software computer program is the property of Berthold. You may not reproduce, modify, adapt, translate, alter nor create derivative works of the font software. You may not reverse engineer, decompile, decrypt, disassemble, nor seek to discover the source code of the font software.
</metadata>
<defs>
<font id="AkzidenzGroteskPro-Cn" horiz-adv-x="375" >
  <font-face 
    font-family="Akzidenz-Grotesk Pro Cnd"
    font-weight="400"
    font-stretch="condensed"
    units-per-em="1000"
    panose-1="2 0 5 6 4 0 0 2 0 4"
    ascent="750"
    descent="-250"
    x-height="500"
    cap-height="706"
    bbox="-191 -250 875 998"
    underline-thickness="50"
    underline-position="-250"
    unicode-range="U+0020-FB02"
  />
<missing-glyph horiz-adv-x="500" 
d="M0 0v706h500v-706h-500zM250 401l170 255h-340zM280 353l170 -258v516zM80 50h340l-170 258zM50 611v-516l170 258z" />
    <glyph glyph-name="fi" unicode="fi" horiz-adv-x="396" 
d="M352 588h-79v103h79v-103zM352 0h-79v500h79v-500zM224 440h-81v-440h-79v440h-59v60h59v77q0 26 3.5 45t14.5 41t36.5 34t63.5 12q26 0 42 -6v-69q-21 6 -32 6q-18 0 -28.5 -7t-14.5 -22.5t-5 -27t-1 -33.5v-50h81v-60z" />
    <glyph glyph-name="fl" unicode="fl" horiz-adv-x="396" 
d="M353 0h-81v706h81v-706zM224 440h-81v-440h-79v440h-59v60h59v77q0 26 3.5 45t14.5 41t36.5 34t63.5 12q26 0 42 -6v-69q-21 6 -32 6q-18 0 -28.5 -7t-14.5 -22.5t-5 -27t-1 -33.5v-50h81v-60z" />
    <glyph glyph-name=".notdef" horiz-adv-x="500" 
d="M0 0v706h500v-706h-500zM250 401l170 255h-340zM280 353l170 -258v516zM80 50h340l-170 258zM50 611v-516l170 258z" />
    <glyph glyph-name=".null" horiz-adv-x="0" 
 />
    <glyph glyph-name="nonmarkingreturn" horiz-adv-x="333" 
 />
    <glyph glyph-name="space" unicode=" " horiz-adv-x="208" 
 />
    <glyph glyph-name="exclam" unicode="!" horiz-adv-x="208" 
d="M82 706h86v-222l-22 -292h-44l-20 292v222zM168 0h-86v118h86v-118z" />
    <glyph glyph-name="quotedbl" unicode="&#x22;" horiz-adv-x="272" 
d="M243 741l-24 -289h-28l-26 289h78zM106 741l-23 -289h-29l-25 289h77z" />
    <glyph glyph-name="numbersign" unicode="#" horiz-adv-x="538" 
d="M522 414h-124l-10 -107h121v-77h-129l-21 -230h-79l21 230h-87l-22 -230h-79l21 230h-119v77h125l10 107h-121v77h130l19 215h80l-20 -215h87l21 215h79l-21 -215h118v-77zM318 414h-88l-10 -107h88z" />
    <glyph glyph-name="dollar" unicode="$" horiz-adv-x="396" 
d="M356 497h-80v39q0 48 -10 71t-37 29v-238l47 -51q35 -37 51 -58t30 -56t14 -76q0 -44 -14.5 -76.5t-31.5 -48.5t-41.5 -26.5t-34.5 -12t-20 -2.5v-85h-57v85q-59 3 -101 44.5t-42 136.5v72h82v-68q0 -40 10 -64t20 -30.5t31 -14.5v261l-42 44q-31 33 -45 51t-26 52
t-12 79q0 100 57 138q30 19 68 23v84h58v-84l10 -1q11 -1 19 -3t19.5 -5.5t22.5 -10t20 -16.5q16 -16 24 -40t9.5 -41.5t1.5 -46.5v-54zM172 457v179q-42 -17 -42 -78q0 -59 42 -101zM230 265v-198q55 18 55 91q0 52 -55 107z" />
    <glyph glyph-name="percent" unicode="%" horiz-adv-x="625" 
d="M509 706l-344 -706h-49l347 706h46zM229 577v-190q0 -127 -102 -127q-36 0 -58.5 10.5t-32 33t-12 41.5t-2.5 51v181q0 20 0.5 32.5t6 34.5t15.5 34.5t31 23t50 10.5q28 0 48 -9t30.5 -22t16.5 -32.5t7.5 -35t1.5 -36.5zM161 398v174q0 25 -0.5 35.5t-4 22.5t-11 16
t-20.5 4q-24 0 -30.5 -16.5t-6.5 -56.5v-174q0 -36 1.5 -49.5t9 -23t25.5 -9.5q25 0 31 14.5t6 62.5zM604 312v-190q0 -127 -102 -127q-36 0 -58.5 10.5t-32 33t-12 41.5t-2.5 51v181q0 20 0.5 32.5t6 34.5t15.5 34.5t31 23t50 10.5q28 0 48 -9t30.5 -22t16.5 -32.5t7.5 -35
t1.5 -36.5zM536 133v174q0 25 -0.5 35.5t-4 22.5t-11 16t-20.5 4q-24 0 -30.5 -16.5t-6.5 -56.5v-174q0 -36 1.5 -49.5t9 -23t25.5 -9.5q25 0 31 14.5t6 62.5z" />
    <glyph glyph-name="ampersand" unicode="&#x26;" horiz-adv-x="458" 
d="M338 306h77q1 -5 1 -16q0 -34 -12.5 -87.5t-39.5 -97.5q20 -34 65 -34h8v-75q-2 0 -7 -0.5t-9 -0.5q-59 0 -107 47l-18 -15q-44 -37 -115 -37q-72 0 -116 45t-44 117q0 105 105 203q-46 96 -46 148q0 16 5 33.5t17 38t37.5 34t61.5 13.5q49 0 86.5 -30t37.5 -85
q0 -47 -36 -99q-17 -25 -64 -72q23 -48 89 -157q11 23 13 28q11 35 11 92v7zM191 408l14 14q46 46 46 83q0 27 -15.5 38.5t-31.5 11.5q-46 0 -46 -54q0 -34 33 -93zM265 103q-38 52 -102 177q-58 -44 -58 -128q0 -34 18 -62.5t61 -28.5q47 0 81 42z" />
    <glyph glyph-name="quotesingle" unicode="'" horiz-adv-x="136" 
d="M106 741l-23 -289h-29l-25 289h77z" />
    <glyph glyph-name="parenleft" unicode="(" horiz-adv-x="292" 
d="M283 -135l-40 -36q-35 36 -78 114q-96 174 -96 335q0 212 166 440l43 -38q-120 -169 -120 -393q0 -263 125 -422z" />
    <glyph glyph-name="parenright" unicode=")" horiz-adv-x="292" 
d="M13 680l43 38q167 -219 167 -440q0 -159 -97 -335q-43 -77 -77 -114l-41 36q125 170 125 424q0 224 -120 391z" />
    <glyph glyph-name="asterisk" unicode="*" horiz-adv-x="332" 
d="M307 590l-96 -35l59 -80l-45 -34l-61 80l-54 -81l-46 34l54 81l-92 28l16 54l94 -26v98h57v-100l95 33z" />
    <glyph glyph-name="plus" unicode="+" horiz-adv-x="558" 
d="M475 261h-154v-169h-83v169h-155v73h155v170h83v-170h154v-73z" />
    <glyph glyph-name="comma" unicode="," horiz-adv-x="167" 
d="M40 118h86v-122q0 -56 -18.5 -89.5t-67.5 -43.5v52q38 9 38 67v18h-38v118z" />
    <glyph glyph-name="hyphen" unicode="-" horiz-adv-x="266" 
d="M241 253h-216v78h216v-78z" />
    <glyph glyph-name="period" unicode="." horiz-adv-x="167" 
d="M126 0h-85v118h85v-118z" />
    <glyph glyph-name="slash" unicode="/" horiz-adv-x="292" 
d="M287 706l-198 -706h-84l201 706h81z" />
    <glyph glyph-name="zero" unicode="0" 
d="M346 522v-309q0 -119 -26 -160q-39 -62 -130 -62q-82 0 -124 45q-38 41 -38 171v300q0 73 11.5 109.5t35.5 59.5q40 39 112 39q71 0 110 -38q25 -24 37 -57.5t12 -97.5zM258 174v347q0 63 -14.5 89t-55.5 26q-25 0 -41 -10t-22.5 -29.5t-8 -34.5t-1.5 -39v-332
q0 -66 13 -94t58 -28q46 0 59 26t13 79z" />
    <glyph glyph-name="one" unicode="1" 
d="M242 0h-88v554h-117v67q68 0 99 17t32 68h74v-706z" />
    <glyph glyph-name="two" unicode="2" 
d="M343 0h-309v85l146 247q46 78 58.5 114t12.5 96q0 47 -15 70t-51 23q-62 0 -62 -93v-88h-81v98q0 163 142 163q43 0 74 -16.5t46.5 -44.5t22.5 -58t7 -65q0 -102 -66 -212l-145 -243h220v-76z" />
    <glyph glyph-name="three" unicode="3" 
d="M43 506v34q0 80 20 116q33 59 124 59q78 0 114 -51q31 -40 31 -134q0 -76 -15.5 -110t-66.5 -44q52 -11 72 -44t20 -100v-63q0 -91 -43 -135q-43 -43 -114 -43q-42 0 -72.5 12.5t-46 29t-24.5 42.5t-10.5 43.5t-1.5 41.5v51h80v-61q0 -82 70 -82q33 0 50.5 17.5
t20.5 34.5t3 42v71q0 56 -22 78t-68 22q-19 0 -27 -1v79q20 -1 25 -1q42 0 64 21t22 81q0 71 -11.5 98.5t-52.5 27.5q-35 0 -48.5 -25.5t-13.5 -73.5v-33h-79z" />
    <glyph glyph-name="four" unicode="4" 
d="M349 158h-62v-158h-83v158h-183v97l143 451h123v-473h62v-75zM87 233h117l4 394z" />
    <glyph glyph-name="five" unicode="5" 
d="M333 706v-76h-193l-5 -176q31 31 85 31q42 0 73 -23q29 -21 38.5 -58t9.5 -113v-115q0 -84 -33 -128q-43 -57 -128 -57q-74 0 -115 45q-21 24 -29 49.5t-8 82.5v39h84v-37q0 -57 17 -78.5t54 -21.5q43 0 57.5 29.5t14.5 93.5v112q0 29 -3.5 48.5t-19 36.5t-44.5 17
q-34 0 -46.5 -22t-12.5 -61h-80q9 296 11 382h273z" />
    <glyph glyph-name="six" unicode="6" 
d="M333 538h-82v27q0 37 -15 54.5t-50 17.5q-23 0 -38 -8.5t-21.5 -22.5t-8.5 -24.5t-2 -20.5v-150q42 51 98 51q48 0 82 -30q24 -21 35 -53t11 -95v-90q0 -117 -34 -154q-45 -49 -121 -49q-49 0 -81 14t-47 43t-20 58.5t-5 73.5v356q0 100 39.5 139.5t110.5 39.5
q149 0 149 -148v-29zM256 224v57q0 57 -15 82t-56 25q-38 0 -53 -26t-15 -81v-122q0 -91 71 -91q43 0 58 34q10 22 10 122z" />
    <glyph glyph-name="seven" unicode="7" 
d="M33 706h308v-65q-41 -77 -72 -181q-35 -117 -48 -217t-16 -243h-96q8 245 81 459q16 48 63 169h-220v78z" />
    <glyph glyph-name="eight" unicode="8" 
d="M343 222v-21q-1 -94 -17.5 -134t-66.5 -61q-36 -15 -76 -15q-48 0 -86 21q-34 19 -50 54t-16 101v51q0 71 16.5 108.5t65.5 49.5q-18 4 -26.5 7.5t-21.5 16.5t-19 41.5t-6 72.5v35q0 166 149 166q40 0 69 -11t44 -26.5t23.5 -39.5t10.5 -42t2 -42v-39q0 -77 -19 -103.5
t-57 -35.5q30 -6 50 -27q18 -19 24.5 -46.5t6.5 -80.5zM255 507v66q0 72 -64 72q-40 0 -55 -25t-15 -82v-38q0 -40 14.5 -63.5t55.5 -23.5q64 0 64 94zM257 168v76q0 10 -2 21t-8 27t-21 26t-37 10q-20 0 -34.5 -7.5t-21.5 -16.5t-10.5 -24.5t-4 -25t-0.5 -24.5v-70
q0 -90 69 -90q36 0 53 23t17 75z" />
    <glyph glyph-name="nine" unicode="9" 
d="M337 545v-369q0 -96 -38 -140.5t-116 -44.5q-72 0 -113 43q-15 16 -23 36.5t-9 34t-1 38.5v43h81v-45q0 -36 15.5 -54t51.5 -18q29 0 45 18t19.5 38.5t3.5 50.5v128q-47 -44 -102 -44q-63 0 -98 48q-23 34 -23 124v95q0 39 5 67.5t19 58.5t46.5 46t81.5 16q85 0 120 -45
t35 -125zM254 421v124q0 93 -68 93q-72 0 -72 -105v-108q0 -89 71 -89q69 0 69 85z" />
    <glyph glyph-name="colon" unicode=":" horiz-adv-x="208" 
d="M168 359h-86v118h86v-118zM168 0h-86v118h86v-118z" />
    <glyph glyph-name="semicolon" unicode=";" horiz-adv-x="208" 
d="M168 364h-86v113h86v-113zM82 118h85v-122q0 -57 -17.5 -90t-67.5 -43v52q38 9 38 70v15h-38v118z" />
    <glyph glyph-name="less" unicode="&#x3c;" horiz-adv-x="559" 
d="M446 76l-358 194v78l358 195v-84l-279 -147l279 -145v-91z" />
    <glyph glyph-name="equal" unicode="=" horiz-adv-x="559" 
d="M474 351h-389v72h389v-72zM474 181h-389v72h389v-72z" />
    <glyph glyph-name="greater" unicode="&#x3e;" horiz-adv-x="559" 
d="M471 271l-358 -195v83l279 147l-279 146v90l358 -193v-78z" />
    <glyph glyph-name="question" unicode="?" horiz-adv-x="396" 
d="M189 189v60q0 38 8 67.5t39 82.5l8 14q13 23 18.5 35t9 36t3.5 64v17q0 34 -20 53t-53 19q-67 0 -67 -78v-93h-78v100q0 53 16 85q17 33 54.5 49.5t77.5 16.5q80 0 117.5 -45t37.5 -108v-23q0 -59 -9 -87t-41 -79l-22 -35q-22 -35 -27.5 -54t-5.5 -45v-52h-66zM265 0h-86
v118h86v-118z" />
    <glyph glyph-name="at" unicode="@" horiz-adv-x="816" 
d="M734 77l31 -41q-159 -159 -355 -159q-166 0 -265.5 98.5t-99.5 255.5q0 202 127.5 342t310.5 140q136 0 215.5 -77.5t79.5 -209.5q0 -85 -32.5 -167.5t-86 -135.5t-109.5 -53q-73 0 -77 85q-63 -84 -139 -84q-56 0 -89.5 44t-33.5 118q0 110 63.5 197.5t143.5 87.5
q78 0 109 -85l15 62h65l-57 -263q-6 -32 -6 -61q0 -41 28 -41q53 0 100.5 97t47.5 192q0 115 -63 178.5t-177 63.5q-153 0 -263 -126t-110 -306q0 -134 85 -217.5t221 -83.5q84 0 170 39.5t151 109.5zM502 355q0 44 -21 71t-56 27q-53 0 -94.5 -66t-41.5 -151q0 -48 18 -74
t51 -26q57 0 100.5 66t43.5 153z" />
    <glyph glyph-name="A" unicode="A" horiz-adv-x="396" 
d="M396 0h-92l-25 136h-164l-24 -136h-91l152 706h88zM264 212l-69 363l-65 -363h134z" />
    <glyph glyph-name="B" unicode="B" horiz-adv-x="437" 
d="M50 706h175q50 0 84.5 -14.5t51.5 -39.5t23.5 -49.5t6.5 -52.5q0 -169 -113 -169q19 0 36.5 -5.5t39.5 -20.5t35 -50.5t13 -87.5q0 -69 -10 -106t-34 -62q-27 -29 -62.5 -39t-114.5 -10h-131v706zM138 627v-211h61q20 0 33.5 1.5t28.5 7.5t23.5 17t14.5 31t6 49
q0 36 -8 58.5t-24.5 32t-31 12t-37.5 2.5h-66zM138 340v-264h70q59 0 83 26t24 97q0 80 -22.5 110.5t-91.5 30.5h-63z" />
    <glyph glyph-name="C" unicode="C" horiz-adv-x="417" 
d="M380 249v-76q0 -137 -88 -171q-33 -12 -78 -12t-78 15t-50.5 36t-27 52t-12 55t-2.5 54v278q0 128 38 179q43 58 139 58q73 0 118 -45q20 -21 28.5 -52.5t8.5 -89.5v-46h-82v67q0 92 -73 92q-66 0 -80 -62q-10 -43 -10 -131v-177q0 -145 17 -174q20 -35 71 -35
q22 0 38 9.5t23.5 21.5t12 33t5 34t0.5 34v53h82z" />
    <glyph glyph-name="D" unicode="D" horiz-adv-x="437" 
d="M50 706h133q45 0 68.5 -2t54.5 -14t51 -37q24 -30 30 -73.5t6 -175.5v-161q0 -129 -30 -179q-18 -30 -50 -45t-57 -17t-75 -2h-131v706zM138 625v-547h70q65 0 82 36t17 155v198q0 41 -1 60.5t-6.5 43t-16.5 32.5t-31.5 15.5t-51.5 6.5h-62z" />
    <glyph glyph-name="E" unicode="E" horiz-adv-x="396" 
d="M368 0h-318v706h311v-79h-223v-210h195v-80h-195v-258h230v-79z" />
    <glyph glyph-name="F" unicode="F" 
d="M361 627h-222v-208h193v-77h-193v-342h-89v706h311v-79z" />
    <glyph glyph-name="G" unicode="G" horiz-adv-x="437" 
d="M395 0h-74v49q-54 -59 -126 -59q-107 0 -137 97q-14 48 -14 167v227q0 116 36.5 176t141.5 60q54 0 89 -13t51 -38t21.5 -49t5.5 -59v-68h-83v64q0 89 -80 89q-64 0 -79 -45t-15 -185v-114q0 -165 13 -195q20 -42 71 -42q37 0 64 23q16 14 24.5 40.5t8.5 91.5v72h-104v76
h186v-365z" />
    <glyph glyph-name="H" unicode="H" horiz-adv-x="437" 
d="M387 0h-88v329h-161v-329h-88v706h88v-300h161v300h88v-706z" />
    <glyph glyph-name="I" unicode="I" horiz-adv-x="187" 
d="M137 0h-87v706h87v-706z" />
    <glyph glyph-name="J" unicode="J" horiz-adv-x="396" 
d="M349 706v-517q0 -33 -1 -51.5t-9 -45.5t-24 -47q-46 -56 -140 -56q-63 0 -103 32q-33 26 -43 63t-10 92v37h85v-64q0 -84 75 -84q44 0 63 26.5t19 87.5v527h88z" />
    <glyph glyph-name="K" unicode="K" horiz-adv-x="417" 
d="M417 0h-98l-125 361l-57 -85v-276h-87v706h87v-304l182 304h98l-167 -266z" />
    <glyph glyph-name="L" unicode="L" horiz-adv-x="354" 
d="M347 0h-297v706h90v-627h207v-79z" />
    <glyph glyph-name="M" unicode="M" horiz-adv-x="562" 
d="M512 0h-81l12 639l-105 -639h-111l-105 639q12 -581 14 -639h-86v706h132l99 -630l97 630h134v-706z" />
    <glyph glyph-name="N" unicode="N" horiz-adv-x="437" 
d="M387 0h-124l-138 612q8 -419 12 -612h-87v706h121l143 -618q-10 525 -12 618h85v-706z" />
    <glyph glyph-name="O" unicode="O" horiz-adv-x="437" 
d="M393 496v-200q0 -174 -35.5 -240t-144.5 -66q-47 0 -79 13.5t-49.5 33t-27 57t-11.5 70.5t-2 88v235q0 121 40 172q46 58 143 58q95 0 130.5 -54.5t35.5 -166.5zM134 492v-275q0 -75 9 -103q17 -51 75 -51q53 0 69 41.5t16 155.5v232q0 31 -0.5 46.5t-4.5 39.5
t-12.5 35.5t-24.5 20.5t-40 9q-51 0 -69 -36t-18 -115z" />
    <glyph glyph-name="P" unicode="P" horiz-adv-x="417" 
d="M50 706h183q81 0 119 -47q24 -30 30.5 -65.5t6.5 -99.5q0 -115 -37 -160q-36 -44 -140 -44h-74v-290h-88v706zM138 626v-259h75q33 0 51.5 7.5t27 28t10 39.5t1.5 60q0 77 -21.5 100.5t-97.5 23.5h-46z" />
    <glyph glyph-name="Q" unicode="Q" horiz-adv-x="437" 
d="M402 -62l-49 -51l-107 104q-12 -1 -33 -1q-45 0 -76.5 12t-49.5 31t-28 50t-12.5 59.5t-2.5 69.5v282q0 38 4 68.5t16 60.5t31.5 49.5t53 32t79.5 12.5q45 0 77 -13.5t49.5 -33.5t27 -54t12 -63.5t2.5 -72.5v-166q0 -60 -2 -96t-9 -83t-24.5 -77t-45.5 -46zM305 258v242
q0 73 -16 108t-68 35q-46 0 -66.5 -33t-20.5 -110v-311q0 -23 1 -36.5t5.5 -33t13 -30.5t25 -19t40.5 -8q55 0 70.5 41.5t15.5 154.5z" />
    <glyph glyph-name="R" unicode="R" horiz-adv-x="437" 
d="M422 0h-92l-120 310h-73v-310h-87v706h154q96 0 141.5 -40t45.5 -156q0 -169 -95 -190zM137 626v-247h62q66 0 85 26.5t19 107.5q0 68 -23 90.5t-80 22.5h-63z" />
    <glyph glyph-name="S" unicode="S" horiz-adv-x="396" 
d="M357 498h-78v45q0 45 -15 72t-61 27q-74 0 -74 -85q0 -13 1.5 -24t6.5 -21.5t8.5 -17.5t12.5 -17.5t12 -14.5t15 -16t14 -15l111 -118q61 -65 61 -153q0 -97 -64 -140q-44 -30 -110 -30q-82 0 -126 44.5t-44 131.5v78h83v-65q0 -53 18 -83.5t69 -30.5q41 0 65 23.5
t24 64.5q0 27 -10 50.5t-20.5 36t-35.5 38.5l-95 98q-45 47 -63 83t-18 94q0 164 164 164q119 0 143 -92q6 -24 6 -82v-45z" />
    <glyph glyph-name="T" unicode="T" 
d="M365 627h-134v-627h-87v627h-134v79h355v-79z" />
    <glyph glyph-name="U" unicode="U" horiz-adv-x="437" 
d="M301 706h89v-476q0 -71 -3 -102t-14 -56q-35 -82 -154 -82q-120 0 -156 77q-10 23 -13 50t-3 107v482h89v-535q0 -51 18 -78t67 -27q42 0 61 21t19 78v541z" />
    <glyph glyph-name="V" unicode="V" 
d="M375 706l-131 -706h-112l-132 706h90l98 -619l98 619h89z" />
    <glyph glyph-name="W" unicode="W" horiz-adv-x="625" 
d="M625 706l-119 -706h-116l-77 585l-80 -585h-118l-115 706h87l87 -619l83 619h113l81 -619l88 619h86z" />
    <glyph glyph-name="X" unicode="X" horiz-adv-x="396" 
d="M396 0h-95l-108 306l-101 -306h-92l135 385l-126 321h97l85 -271l79 271h94l-116 -321z" />
    <glyph glyph-name="Y" unicode="Y" horiz-adv-x="396" 
d="M396 706l-155 -428v-278h-91v278l-150 428h93l105 -353l105 353h93z" />
    <glyph glyph-name="Z" unicode="Z" 
d="M353 0h-331v72l232 555h-199v79h298v-67l-236 -561h236v-78z" />
    <glyph glyph-name="bracketleft" unicode="[" horiz-adv-x="313" 
d="M293 -171h-196v889h196v-63h-112v-762h112v-64z" />
    <glyph glyph-name="backslash" unicode="\" horiz-adv-x="292" 
d="M286 0h-83l-198 706h81z" />
    <glyph glyph-name="bracketright" unicode="]" horiz-adv-x="313" 
d="M216 -171h-197v64h113v762h-113v63h197v-889z" />
    <glyph glyph-name="asciicircum" unicode="^" horiz-adv-x="559" 
d="M496 358h-89l-128 271l-127 -271h-90l177 348h80z" />
    <glyph glyph-name="underscore" unicode="_" horiz-adv-x="500" 
d="M510 -206h-520v59h520v-59z" />
    <glyph glyph-name="grave" unicode="`" horiz-adv-x="229" 
d="M195 563h-65l-97 108h109z" />
    <glyph glyph-name="a" unicode="a" horiz-adv-x="354" 
d="M109 336h-71v29q0 26 1 39t7 31t18 33q35 41 113 41q65 0 100 -35q32 -32 32 -102v-266q0 -52 4 -73.5t20 -32.5h-98v60q-33 -69 -104 -69q-33 0 -60 16q-52 31 -52 114q0 46 18 77t42.5 47t70 47t80.5 66v17q0 70 -61 70q-60 0 -60 -63v-46zM230 162v123
q-17 -18 -55 -44t-56 -51.5t-18 -67.5q0 -72 54 -72q33 0 56 29q19 25 19 83z" />
    <glyph glyph-name="b" unicode="b" 
d="M44 706h79v-246q38 49 98 49q42 0 67 -19.5t35 -42.5q16 -37 16 -149v-112q0 -35 -2 -60t-9.5 -52t-20 -44t-34.5 -28t-53 -11q-59 0 -101 53v-44h-75v706zM123 362v-195q0 -57 11 -78q20 -36 64 -36q15 0 25 4t16.5 14.5t10.5 21t5.5 32t2 38t0.5 47.5v68
q0 100 -11 136.5t-53 36.5q-31 0 -51 -23.5t-20 -65.5z" />
    <glyph glyph-name="c" unicode="c" horiz-adv-x="354" 
d="M320 186v-13q0 -99 -32.5 -140.5t-113.5 -41.5q-92 0 -120 63q-18 38 -18 174v59q0 117 28.5 169.5t116.5 52.5q83 0 111 -40.5t28 -121.5v-28h-76v26q0 26 -1.5 41t-7.5 31.5t-19 23.5t-35 7q-39 0 -51.5 -28.5t-12.5 -113.5v-133q0 -26 0.5 -38.5t3.5 -31t9.5 -27
t19 -15.5t30.5 -7q39 0 51.5 29.5t12.5 102.5h76z" />
    <glyph glyph-name="d" unicode="d" 
d="M331 0h-75v53q-35 -62 -105 -62q-71 0 -93 55.5t-22 188.5v67q0 110 28 158.5t98 48.5q54 0 88 -48v245h81v-706zM252 235v67q0 32 -1.5 52.5t-8 44.5t-21.5 36t-39 12q-23 0 -37 -11t-20 -37t-7.5 -49t-1.5 -65v-111q0 -27 2 -45t8 -37t20 -28.5t36 -9.5q23 0 37.5 11
t21.5 37t9 54.5t2 78.5z" />
    <glyph glyph-name="e" unicode="e" horiz-adv-x="354" 
d="M318 155v-20q0 -23 -4.5 -44t-17.5 -45.5t-43 -39.5t-74 -15q-91 0 -125 67q-11 24 -14.5 50t-3.5 114v83q0 40 2 66.5t10.5 55t23 44.5t41 26.5t63.5 10.5q142 0 142 -153v-120h-202v-56q0 -32 1.5 -49t7.5 -37t20 -28.5t37 -8.5q31 0 46 20t15 69v10h75zM243 299v45
q0 33 -3 52t-17.5 35t-42.5 16q-39 0 -51 -27t-12 -88v-33h126z" />
    <glyph glyph-name="f" unicode="f" horiz-adv-x="229" 
d="M224 440h-81v-440h-79v440h-59v60h59v77q0 26 3.5 45t14.5 41t36.5 34t63.5 12q26 0 42 -6v-69q-21 6 -32 6q-18 0 -28.5 -7t-14.5 -22.5t-5 -27t-1 -33.5v-50h81v-60z" />
    <glyph glyph-name="g" unicode="g" 
d="M331 500v-529q0 -76 -44.5 -107.5t-110.5 -31.5q-62 0 -99 33t-37 88v7h74q0 -64 66 -64q40 0 55.5 21.5t15.5 61.5v73l-9 -12q-32 -43 -92 -43q-59 0 -89 44q-26 37 -26 137v152q0 36 4.5 64t17 56t38.5 43.5t65 15.5q62 0 97 -53v44h74zM117 306v-135q0 -25 1.5 -41
t7.5 -35t19.5 -28t35.5 -9q72 0 72 115v137q0 35 -2 57.5t-9 44t-22 31.5t-38 10q-18 0 -30.5 -8t-19 -20t-10 -33t-4.5 -39t-1 -47z" />
    <glyph glyph-name="h" unicode="h" 
d="M331 0h-79v317q0 29 -0.5 45t-4 35t-10 27.5t-18 15t-29.5 6.5q-23 0 -37.5 -9.5t-20.5 -30.5t-7.5 -38.5t-1.5 -48.5v-319h-79v706h79v-251q37 54 101 54q29 0 50 -10.5t32 -25.5t17 -39t7 -41.5t1 -42.5v-350z" />
    <glyph glyph-name="i" unicode="i" horiz-adv-x="167" 
d="M123 588h-79v103h79v-103zM123 0h-79v500h79v-500z" />
    <glyph glyph-name="j" unicode="j" horiz-adv-x="167" 
d="M123 587h-79v104h79v-104zM123 500v-518q0 -38 -4 -61t-17 -46t-41.5 -33t-74.5 -10q-6 0 -18 0.5t-15 0.5v66q3 0 12 -0.5t15 -0.5q43 0 53.5 17t10.5 63v522h79z" />
    <glyph glyph-name="k" unicode="k" horiz-adv-x="354" 
d="M363 500l-135 -194l128 -306h-85l-97 232l-51 -70v-162h-79v706h79v-433l148 227h92z" />
    <glyph glyph-name="l" unicode="l" horiz-adv-x="167" 
d="M124 0h-81v706h81v-706z" />
    <glyph glyph-name="m" unicode="m" horiz-adv-x="583" 
d="M540 0h-82v346q0 51 -12.5 76t-48.5 25q-65 0 -65 -96v-351h-81v362q0 85 -60 85q-23 0 -37 -8t-20.5 -27t-8 -36.5t-1.5 -49.5v-326h-80v500h75v-49q36 58 107 58q68 0 99 -58q42 58 103 58q58 0 85 -38.5t27 -101.5v-369z" />
    <glyph glyph-name="n" unicode="n" 
d="M331 0h-81v366q0 80 -59 80q-67 0 -67 -97v-349h-80v500h76v-46q40 55 108 55q60 0 86 -43q11 -18 14 -41t3 -73v-352z" />
    <glyph glyph-name="o" unicode="o" horiz-adv-x="354" 
d="M318 343v-151q0 -32 -1 -49t-4.5 -45t-12.5 -43.5t-24 -32t-40.5 -24t-60.5 -7.5q-139 0 -139 158v165q0 100 29.5 147.5t115.5 47.5q38 0 65 -12t40.5 -28t21 -41.5t9 -42.5t1.5 -42zM235 211v142q0 25 -2 41t-15.5 32.5t-38.5 16.5q-36 0 -47.5 -26.5t-11.5 -86.5v-140
q0 -80 9 -108.5t46 -28.5q14 0 24.5 4.5t17 15.5t10.5 22t5.5 32.5t2 37.5t0.5 46z" />
    <glyph glyph-name="p" unicode="p" 
d="M44 500h80v-48q41 57 101 57q114 0 114 -164v-142q0 -37 -1.5 -61t-8 -56t-18.5 -50t-35 -31.5t-56 -13.5q-62 0 -94 51v-201h-82v659zM255 161v186q0 98 -58 98q-70 0 -70 -124v-167q0 -44 16 -73.5t51 -29.5q21 0 34.5 10.5t18.5 30.5t6.5 34t1.5 35z" />
    <glyph glyph-name="q" unicode="q" 
d="M254 500h77v-659h-79v209q-37 -59 -97 -59q-32 0 -54.5 12.5t-35 30t-19.5 46t-8.5 52.5t-1.5 57v154q0 77 31 121.5t88 44.5q61 0 99 -62v53zM119 347v-182q0 -21 1.5 -36t6.5 -34.5t18.5 -30t34.5 -10.5q25 0 40.5 11.5t22 34t8 39.5t1.5 43v139q0 21 -0.5 32.5
t-4.5 31.5t-11 31t-21.5 20t-35.5 9q-60 0 -60 -98z" />
    <glyph glyph-name="r" unicode="r" horiz-adv-x="250" 
d="M36 500h77v-94q17 45 48 74t74 29h13v-84h-11q-39 0 -64.5 -11.5t-36.5 -34.5t-14.5 -45t-3.5 -55v-279h-82v500z" />
    <glyph glyph-name="s" unicode="s" horiz-adv-x="313" 
d="M94 173v-40q0 -77 62 -77q26 0 42 17t16 43q0 21 -8 37.5t-16 25t-28 25.5l-62 54q-37 33 -53 58t-16 65q0 58 31 93t97 35q124 0 124 -128v-28h-71v16q0 76 -53 76q-20 0 -36.5 -11.5t-16.5 -43.5q0 -8 2 -15.5t6.5 -15l7.5 -12.5t11 -12.5t11 -10.5t12.5 -10.5
t11.5 -9.5l57 -47q36 -30 53 -59t17 -67q0 -68 -38.5 -104t-105.5 -36q-77 0 -109 46q-15 22 -19.5 49.5t-5.5 86.5h77z" />
    <glyph glyph-name="t" unicode="t" horiz-adv-x="229" 
d="M6 500h62v134h80v-134h74v-60h-74v-323q0 -27 9 -42.5t37 -15.5q14 0 28 4v-65q-21 -7 -45 -7q-70 0 -90.5 29t-20.5 96v324h-60v60z" />
    <glyph glyph-name="u" unicode="u" 
d="M331 0h-77v46q-43 -55 -107 -55q-38 0 -65 22q-25 21 -31.5 52.5t-6.5 96.5v338h80v-370q0 -46 19 -62.5t41 -16.5q24 0 39 11.5t20.5 32.5t7 35t1.5 35v335h79v-500z" />
    <glyph glyph-name="v" unicode="v" horiz-adv-x="313" 
d="M312 500l-114 -500h-91l-107 500h87l66 -410l73 410h86z" />
    <glyph glyph-name="w" unicode="w" horiz-adv-x="521" 
d="M521 500l-98 -500h-96l-68 421l-69 -421h-98l-92 500h87l53 -428l65 428h108l65 -422l59 422h84z" />
    <glyph glyph-name="x" unicode="x" horiz-adv-x="333" 
d="M333 0h-91l-79 198l-75 -198h-88l120 268l-104 232h93l54 -164l60 164h90l-105 -232z" />
    <glyph glyph-name="y" unicode="y" horiz-adv-x="333" 
d="M235 500h85l-98 -498q-6 -33 -10.5 -50t-16 -43t-28.5 -42q-30 -30 -95 -30h-52v69q10 -1 30 -1q16 0 25.5 1t24 6t22 18t7.5 34q0 17 -10 61l-113 475h86l79 -402z" />
    <glyph glyph-name="z" unicode="z" horiz-adv-x="292" 
d="M281 0h-272v66l188 366h-163v68h247v-68l-187 -366h187v-66z" />
    <glyph glyph-name="braceleft" unicode="{" horiz-adv-x="354" 
d="M327 718v-67q-67 -4 -84 -33t-17 -101v-74q0 -32 -2.5 -54.5t-10.5 -48t-26 -42.5t-47 -23v-4q28 -5 46.5 -21t26.5 -40.5t10.5 -46.5t2.5 -53v-93q0 -62 18.5 -90t82.5 -31v-67h-5q-51 0 -75 6q-67 16 -88 61t-21 124v83q0 31 -2 49t-9 40t-25 33t-47 14v69q29 0 46 12
q17 11 26 33t10 38.5t1 44.5v97q0 47 6 77.5t29 59t66 40.5q28 8 88 8z" />
    <glyph glyph-name="bar" unicode="|" horiz-adv-x="229" 
d="M155 -250h-81v998h81v-998z" />
    <glyph glyph-name="braceright" unicode="}" horiz-adv-x="354" 
d="M28 -170v67q29 1 48.5 9t30 17.5t15.5 29.5t6 35t1 43v74q0 32 2.5 54.5t10.5 48t26 42.5t47 23v4q-28 5 -46.5 21t-26.5 40.5t-10.5 46.5t-2.5 53v93q0 62 -19.5 91t-81.5 30v67h5q51 0 75 -6q67 -16 88 -61t21 -124v-83q0 -31 2 -49t9 -40t25 -33t47 -14v-69
q-29 0 -46 -12q-17 -11 -26 -33t-10 -38.5t-1 -44.5v-97q0 -47 -6 -77.5t-29 -59t-66 -40.5q-28 -8 -88 -8z" />
    <glyph glyph-name="asciitilde" unicode="~" horiz-adv-x="565" 
d="M458 367l47 -58q-59 -75 -126 -75q-36 0 -92 23l-26 11q-45 19 -72 19q-24 0 -41 -11t-40 -43l-48 59q35 43 62 59t67 16q29 0 72 -17l55 -22q39 -16 61 -16q37 0 81 55z" />
    <glyph glyph-name="uni00A0" unicode="&#xa0;" horiz-adv-x="208" 
 />
    <glyph glyph-name="exclamdown" unicode="&#xa1;" horiz-adv-x="208" 
d="M126 589h-85v117h85v-117zM126 0h-85v223l21 291h45l19 -291v-223z" />
    <glyph glyph-name="cent" unicode="&#xa2;" horiz-adv-x="354" 
d="M239 183h76q0 -103 -23 -140t-87 -51v-74h-53v74q-19 3 -30 5t-29.5 12t-29 25.5t-19 45t-8.5 70.5v165q0 59 8.5 97.5t27 57.5t35 26t45.5 13v65h53v-65q31 -5 53.5 -19.5t33 -30t16.5 -41.5t6.5 -41t0.5 -41v-15h-76v29q0 24 -1 37t-6.5 30t-19 25t-35.5 8t-35.5 -11
t-18.5 -33t-6.5 -38.5t-1.5 -44.5v-172q0 -21 2 -36t7.5 -30.5t18.5 -23.5t32 -8q64 0 64 94v36z" />
    <glyph glyph-name="sterling" unicode="&#xa3;" horiz-adv-x="458" 
d="M435 233v-64q0 -27 -1.5 -47.5t-9 -47t-20 -43.5t-36 -29t-55.5 -12q-58 0 -115 48q-40 -46 -97 -46q-39 0 -64.5 24.5t-25.5 61.5t25 60.5t63 23.5q29 0 67 -24q2 20 2 33q0 50 -28 134h-99v75h74q-20 53 -27.5 88.5t-7.5 89.5q0 18 2 34t12 40.5t27.5 41.5t52 30
t81.5 13q91 0 128 -58q27 -42 27 -147q0 -16 -1 -25h-87v14q0 31 -0.5 48t-4.5 38.5t-11 32t-20.5 18t-33.5 7.5q-83 0 -83 -98q0 -74 41 -167h134v-75h-112q21 -80 21 -123q0 -49 -14 -85q8 -7 29 -16.5t37 -9.5q18 0 29.5 10t16 28.5t5.5 31t1 32.5q0 30 -3 60h81zM140 88
q-24 16 -40 16q-26 0 -26 -20q0 -8 6 -14.5t18 -6.5q27 0 42 25z" />
    <glyph glyph-name="currency" unicode="&#xa4;" horiz-adv-x="627" 
d="M533 625l53 -56l-71 -75q48 -78 48 -153q0 -85 -49 -158l71 -76l-53 -55l-72 76q-72 -52 -149 -52q-41 0 -72 11t-74 41l-72 -74l-52 55l72 74q-28 44 -38.5 78.5t-10.5 78.5q0 81 49 155l-70 74l52 55l70 -73q72 51 149 51q79 0 147 -51zM481 338q0 81 -47.5 134.5
t-119.5 53.5t-120.5 -53.5t-48.5 -132.5q0 -80 49 -133.5t122 -53.5q70 0 117.5 53.5t47.5 131.5z" />
    <glyph glyph-name="yen" unicode="&#xa5;" horiz-adv-x="396" 
d="M396 706l-124 -347h87v-58h-108l-10 -27v-27h118v-57h-118v-190h-88v190h-117v57h117v27l-9 27h-108v58h86l-122 347h95l103 -358l104 358h94z" />
    <glyph glyph-name="brokenbar" unicode="&#xa6;" horiz-adv-x="229" 
d="M155 308h-81v441h81v-441zM155 -249h-81v439h81v-439z" />
    <glyph glyph-name="section" unicode="&#xa7;" horiz-adv-x="417" 
d="M32 99h87v-18q0 -54 16 -81.5t63 -27.5q41 0 62.5 22t21.5 63q0 34 -12.5 53t-42.5 36q-17 9 -74 33.5t-77 38.5q-54 39 -54 103q0 67 67 129q-39 42 -39 105q0 82 39.5 120t121.5 38q79 0 116 -35t37 -112q0 -26 -1 -39h-80v8q0 25 -1.5 40t-8 32.5t-23 26t-42.5 8.5
q-75 0 -75 -78q0 -21 6 -36t21 -26t26 -17t33 -15l29 -12q38 -15 57 -24.5t42 -26.5t32.5 -39t9.5 -52q0 -40 -15.5 -69t-48.5 -67q25 -29 34.5 -54t9.5 -64q0 -88 -44 -127t-131 -39q-84 0 -123 41t-39 124v38zM130 416q-39 -37 -39 -70q0 -32 27 -54q12 -10 43.5 -25.5
t70.5 -32t50 -22.5q37 37 37 75q0 14 -6 26t-11.5 19.5t-21 16.5t-21.5 12t-26 11t-22 9q-27 11 -81 35z" />
    <glyph glyph-name="dieresis" unicode="&#xa8;" horiz-adv-x="229" 
d="M231 563h-78v103h78v-103zM76 563h-78v103h78v-103z" />
    <glyph glyph-name="copyright" unicode="&#xa9;" horiz-adv-x="832" 
d="M489 287h72v-29q0 -64 -12 -89q-25 -55 -117 -55q-71 0 -106 34.5t-35 115.5v173q0 79 33 114.5t108 35.5q59 0 93 -26q21 -16 28.5 -41t7.5 -76v-33h-72v31q0 50 -12 68t-48 18t-49.5 -22t-13.5 -80v-151q0 -58 13.5 -80t49.5 -22q34 0 47 17t13 69v28zM772 354
q0 -151 -103 -254t-254 -103q-148 0 -251.5 104t-103.5 252q0 149 104 252.5t252 103.5q149 0 252.5 -103t103.5 -252zM736 352q0 136 -93 229.5t-227 93.5q-133 0 -226.5 -94.5t-93.5 -228.5t93 -227.5t226 -93.5t227 93.5t94 227.5z" />
    <glyph glyph-name="ordfeminine" unicode="&#xaa;" horiz-adv-x="229" 
d="M217 392h-76v21q-24 -26 -53 -26q-37 0 -55 24.5t-18 60.5q0 18 3 31t13.5 25t16 17.5t26.5 20t28 20.5l34 26v12q0 36 -28 36q-30 0 -30 -34v-31h-53v37q0 80 85 80q86 0 86 -92v-174q0 -31 21 -54zM139 503v50q-6 -5 -24.5 -18.5t-23.5 -19t-11 -17.5t-6 -27
q0 -35 28 -35q37 0 37 67z" />
    <glyph glyph-name="guillemotleft" unicode="&#xab;" horiz-adv-x="354" 
d="M324 90l-139 158v86l139 156v-116l-74 -83l74 -84v-117zM162 90l-140 158v86l140 156v-116l-74 -83l74 -84v-117z" />
    <glyph glyph-name="logicalnot" unicode="&#xac;" horiz-adv-x="559" 
d="M475 75h-85v185h-329v73h414v-258z" />
    <glyph glyph-name="uni00AD" unicode="&#xad;" horiz-adv-x="266" 
d="M241 253h-216v78h216v-78z" />
    <glyph glyph-name="registered" unicode="&#xae;" horiz-adv-x="832" 
d="M772 354q0 -151 -103 -254t-254 -103q-148 0 -251.5 104t-103.5 252q0 149 104 252.5t252 103.5q149 0 252.5 -103t103.5 -252zM736 352q0 136 -93 229.5t-227 93.5q-133 0 -226.5 -94.5t-93.5 -228.5t93 -227.5t226 -93.5t227 93.5t94 227.5zM300 574h95q88 0 118 -18
q22 -14 31.5 -39t9.5 -71q0 -59 -16 -86t-60 -41l95 -194h-80l-88 189h-33v-189h-72v449zM372 516v-145h23q53 0 70 14.5t17 60.5q0 45 -16 59q-12 11 -74 11h-20z" />
    <glyph glyph-name="macron" unicode="&#xaf;" horiz-adv-x="229" 
d="M223 575h-217v64h217v-64z" />
    <glyph glyph-name="degree" unicode="&#xb0;" horiz-adv-x="354" 
d="M338 594q0 -67 -47 -114.5t-114 -47.5t-114 47.5t-47 114.5t47 114t114 47q68 0 114.5 -46.5t46.5 -114.5zM256 596q0 33 -23 56t-56 23t-56 -23t-23 -56q0 -32 23.5 -55.5t55.5 -23.5q33 0 56 23t23 56z" />
    <glyph glyph-name="plusminus" unicode="&#xb1;" horiz-adv-x="559" 
d="M476 296h-155v-169h-82v169h-155v73h155v170h82v-170h155v-73zM476 0h-392v73h392v-73z" />
    <glyph glyph-name="twosuperior" unicode="&#xb2;" horiz-adv-x="250" 
d="M225 265h-203v60l89 151q3 6 10.5 18.5t10 16t7.5 13t6.5 13.5t4 12t3 14.5t1.5 15.5t1 19q0 51 -34 51q-31 0 -31 -47v-62h-63v60q0 112 96 112q42 0 69 -28.5t27 -90.5q0 -63 -40 -131l-83 -137h129v-60z" />
    <glyph glyph-name="threesuperior" unicode="&#xb3;" horiz-adv-x="250" 
d="M20 407h63v-40q0 -46 34 -46q25 0 32.5 15.5t7.5 49.5v20q0 31 -8.5 46t-39.5 15l-25 -1v62q15 -1 22 -1q23 0 34.5 11t11.5 44q0 26 -1 37.5t-8.5 21.5t-22.5 10q-30 0 -30 -51v-29h-63v39q0 102 95 102q96 0 96 -109q0 -51 -7.5 -71.5t-27.5 -32.5q25 -10 33 -38t8 -92
q0 -46 -25.5 -77.5t-73.5 -31.5q-105 0 -105 100v47z" />
    <glyph glyph-name="acute" unicode="&#xb4;" horiz-adv-x="229" 
d="M195 671l-98 -108h-64l53 108h109z" />
    <glyph glyph-name="mu" unicode="&#xb5;" 
d="M355 0h-101v47q-22 -33 -37.5 -44.5t-37.5 -11.5q-29 0 -55 26v-176h-80v659h80v-346q0 -52 8 -72q13 -31 53 -31q35 0 51 27t16 87v335h79v-419q0 -34 5 -50.5t19 -30.5z" />
    <glyph glyph-name="paragraph" unicode="&#xb6;" horiz-adv-x="632" 
d="M499 643h-34v-810h-58v810h-121v-810h-58v486q-142 36 -142 187q0 96 59 150q31 29 69 39.5t109 10.5h176v-63z" />
    <glyph glyph-name="periodcentered" unicode="&#xb7;" horiz-adv-x="167" 
d="M126 229h-85v118h85v-118z" />
    <glyph glyph-name="cedilla" unicode="&#xb8;" horiz-adv-x="229" 
d="M94 11h28l-28 -79q24 10 45 10q29 0 49 -17.5t20 -46.5q0 -20 -13 -42q-31 -47 -96 -47q-35 0 -78 20l13 24q37 -14 55 -14q21 0 39.5 14t18.5 36q0 16 -11 27t-28 11q-13 0 -30 -13l-21 8z" />
    <glyph glyph-name="onesuperior" unicode="&#xb9;" horiz-adv-x="250" 
d="M164 265h-68v335h-70v55h19q60 0 60 46v5h59v-441z" />
    <glyph glyph-name="ordmasculine" unicode="&#xba;" horiz-adv-x="229" 
d="M23 508v85q0 66 21.5 92.5t69.5 26.5q55 0 74 -29.5t19 -89.5v-78q0 -43 -7.5 -71t-22.5 -39.5t-28 -14.5t-32 -3q-57 0 -75.5 29.5t-18.5 91.5zM87 595v-99q0 -33 5.5 -46t21.5 -13q17 0 23 13.5t6 43.5v103q0 36 -5.5 49.5t-23.5 13.5t-22.5 -13.5t-4.5 -51.5z" />
    <glyph glyph-name="guillemotright" unicode="&#xbb;" horiz-adv-x="354" 
d="M332 248l-140 -158v117l74 84l-74 83v116l140 -156v-86zM170 248l-140 -158v117l74 84l-74 83v116l140 -156v-86z" />
    <glyph glyph-name="onequarter" unicode="&#xbc;" horiz-adv-x="625" 
d="M509 706l-344 -706h-49l347 706h46zM164 265h-68v335h-70v55h19q60 0 60 46v5h59v-441zM606 96h-38v-96h-64v96h-111v67l88 279h87v-287h38v-59zM447 155h57l5 211z" />
    <glyph glyph-name="onehalf" unicode="&#xbd;" horiz-adv-x="625" 
d="M600 0h-203v60l89 151q3 6 10.5 18.5t10 16t7.5 13t6.5 13.5t4 12t3 14.5t1.5 15.5t1 19q0 51 -34 51q-31 0 -31 -47v-62h-63v60q0 112 96 112q42 0 69 -28.5t27 -90.5q0 -64 -40 -131l-83 -137h129v-60zM495 706l-344 -706h-49l348 706h45zM164 265h-68v335h-70v55h19
q60 0 60 46v5h59v-441z" />
    <glyph glyph-name="threequarters" unicode="&#xbe;" horiz-adv-x="625" 
d="M525 706l-344 -706h-49l348 706h45zM90 571h-63v39q0 102 95 102q96 0 96 -109q0 -51 -7.5 -71.5t-27.5 -32.5q25 -10 33 -38t8 -92q0 -46 -25.5 -77.5t-73.5 -31.5q-105 0 -105 100v47h63v-40q0 -46 34 -46q25 0 32.5 15.5t7.5 49.5v20q0 31 -8.5 46t-39.5 15l-25 -1v62
q15 -1 22 -1q23 0 34.5 11t11.5 44q0 26 -1 37.5t-8.5 21.5t-22.5 10q-30 0 -30 -51v-29zM606 96h-38v-96h-64v96h-111v67l88 279h87v-287h38v-59zM447 155h57l5 211z" />
    <glyph glyph-name="questiondown" unicode="&#xbf;" horiz-adv-x="396" 
d="M207 518v-60q0 -38 -8 -67.5t-39 -82.5l-8 -14q-13 -23 -18.5 -35t-9 -36t-3.5 -64v-17q0 -34 20 -53t53 -19q67 0 67 78v93h78v-100q0 -53 -16 -85q-17 -33 -54.5 -49.5t-77.5 -16.5q-80 0 -117.5 45t-37.5 108v23q0 59 9 87t41 79l22 35q22 35 27.5 54t5.5 45v52h66z
M131 707h86v-118h-86v118z" />
    <glyph glyph-name="Agrave" unicode="&#xc0;" horiz-adv-x="396" 
d="M396 0h-92l-25 136h-164l-24 -136h-91l152 706h88zM264 212l-69 363l-65 -363h134zM237 764h-65l-97 107h109z" />
    <glyph glyph-name="Aacute" unicode="&#xc1;" horiz-adv-x="396" 
d="M396 0h-92l-25 136h-164l-24 -136h-91l152 706h88zM264 212l-69 363l-65 -363h134zM316 871l-98 -107h-64l53 107h109z" />
    <glyph glyph-name="Acircumflex" unicode="&#xc2;" horiz-adv-x="396" 
d="M396 0h-92l-25 136h-164l-24 -136h-91l152 706h88zM264 212l-69 363l-65 -363h134zM334 764h-80l-53 60l-58 -60h-73l101 107h65z" />
    <glyph glyph-name="Atilde" unicode="&#xc3;" horiz-adv-x="396" 
d="M396 0h-92l-25 136h-164l-24 -136h-91l152 706h88zM264 212l-69 363l-65 -363h134zM289 858h36q-9 -89 -75 -89q-21 0 -61 15.5t-53 15.5q-10 0 -16 -5t-8 -10t-4 -16h-36q0 44 28 70q21 20 48 20q26 0 63 -15.5t51 -15.5q27 0 27 30z" />
    <glyph glyph-name="Adieresis" unicode="&#xc4;" horiz-adv-x="396" 
d="M396 0h-92l-25 136h-164l-24 -136h-91l152 706h88zM264 212l-69 363l-65 -363h134zM329 764h-83v107h83v-107zM151 764h-83v107h83v-107z" />
    <glyph glyph-name="Aring" unicode="&#xc5;" horiz-adv-x="396" 
d="M396 0h-92l-25 136h-164l-24 -136h-91l152 706h88zM264 212l-69 363l-65 -363h134zM279 828q0 -33 -23.5 -56.5t-57.5 -23.5q-33 0 -56.5 23.5t-23.5 56.5t24 56.5t57 23.5t56.5 -23.5t23.5 -56.5zM235 829q0 15 -10.5 25.5t-26.5 10.5q-14 0 -25 -10t-11 -25t11 -26.5
t26 -11.5t25.5 10.5t10.5 26.5z" />
    <glyph glyph-name="AE" unicode="&#xc6;" horiz-adv-x="625" 
d="M605 0h-308v155h-153l-52 -155h-92l249 706h343v-79h-208v-210h178v-80h-178v-258h221v-79zM297 231v386l-127 -386h127z" />
    <glyph glyph-name="Ccedilla" unicode="&#xc7;" horiz-adv-x="417" 
d="M298 249h82v-76q0 -137 -88 -171q-33 -12 -80 -12l-20 -58q24 10 45 10q29 0 49 -17.5t20 -46.5q0 -30 -25 -59.5t-84 -29.5q-35 0 -78 20l13 24q37 -14 55 -14q21 0 39.5 14t18.5 36q0 16 -11 27t-28 11q-13 0 -30 -13l-21 8l30 89q-46 5 -76.5 27t-43.5 56.5t-17 63
t-4 64.5v278q0 128 38 179q43 58 139 58q73 0 118 -45q20 -21 28.5 -52.5t8.5 -89.5v-46h-82v67q0 92 -73 92q-66 0 -80 -62q-10 -43 -10 -131v-177q0 -145 17 -174q20 -35 71 -35q22 0 38 9.5t23.5 21.5t12 33t5 34t0.5 34v53z" />
    <glyph glyph-name="Egrave" unicode="&#xc8;" horiz-adv-x="396" 
d="M368 0h-318v706h311v-79h-223v-210h195v-80h-195v-258h230v-79zM243 764h-65l-97 107h109z" />
    <glyph glyph-name="Eacute" unicode="&#xc9;" horiz-adv-x="396" 
d="M368 0h-318v706h311v-79h-223v-210h195v-80h-195v-258h230v-79zM316 871l-98 -107h-64l53 107h109z" />
    <glyph glyph-name="Ecircumflex" unicode="&#xca;" horiz-adv-x="396" 
d="M368 0h-318v706h311v-79h-223v-210h195v-80h-195v-258h230v-79zM329 764h-80l-53 60l-58 -60h-73l101 107h65z" />
    <glyph glyph-name="Edieresis" unicode="&#xcb;" horiz-adv-x="396" 
d="M368 0h-318v706h311v-79h-223v-210h195v-80h-195v-258h230v-79zM329 764h-83v107h83v-107zM151 764h-83v107h83v-107z" />
    <glyph glyph-name="Igrave" unicode="&#xcc;" horiz-adv-x="187" 
d="M137 0h-87v706h87v-706zM139 764h-65l-97 107h109z" />
    <glyph glyph-name="Iacute" unicode="&#xcd;" horiz-adv-x="187" 
d="M137 0h-87v706h87v-706zM213 871l-98 -107h-64l53 107h109z" />
    <glyph glyph-name="Icircumflex" unicode="&#xce;" horiz-adv-x="187" 
d="M137 0h-87v706h87v-706zM225 764h-80l-53 60l-58 -60h-73l101 107h65z" />
    <glyph glyph-name="Idieresis" unicode="&#xcf;" horiz-adv-x="187" 
d="M137 0h-87v706h87v-706zM225 764h-83v107h83v-107zM47 764h-83v107h83v-107z" />
    <glyph glyph-name="Eth" unicode="&#xd0;" horiz-adv-x="437" 
d="M50 0v355h-49v64h49v287h149q54 0 90 -10t56.5 -26t31 -47t13.5 -60.5t3 -79.5v-278q0 -64 -12 -105.5t-39 -63t-60.5 -29t-84.5 -7.5h-147zM138 625v-206h88v-64h-88v-277h43q27 0 41 0.5t30 5.5t23 9t15 20.5t10 30t4.5 46t2.5 60.5v82v112q0 44 -1 68t-5 48t-11 33.5
t-21.5 18.5t-33.5 11t-49 2h-48z" />
    <glyph glyph-name="Ntilde" unicode="&#xd1;" horiz-adv-x="437" 
d="M387 0h-124l-138 612q8 -419 12 -612h-87v706h121l143 -618q-10 525 -12 618h85v-706zM310 858h36q-9 -89 -75 -89q-21 0 -61 15.5t-53 15.5q-10 0 -16 -5t-8 -10t-4 -16h-36q0 44 28 70q21 20 48 20q25 0 63 -15.5t51 -15.5q27 0 27 30z" />
    <glyph glyph-name="Ograve" unicode="&#xd2;" horiz-adv-x="437" 
d="M393 496v-200q0 -174 -35.5 -240t-144.5 -66q-47 0 -79 13.5t-49.5 33t-27 57t-11.5 70.5t-2 88v235q0 121 40 172q46 58 143 58q95 0 130.5 -54.5t35.5 -166.5zM134 492v-275q0 -75 9 -103q17 -51 75 -51q53 0 69 41.5t16 155.5v232q0 31 -0.5 46.5t-4.5 39.5
t-12.5 35.5t-24.5 20.5t-40 9q-51 0 -69 -36t-18 -115zM264 764h-65l-97 107h109z" />
    <glyph glyph-name="Oacute" unicode="&#xd3;" horiz-adv-x="437" 
d="M393 496v-200q0 -174 -35.5 -240t-144.5 -66q-47 0 -79 13.5t-49.5 33t-27 57t-11.5 70.5t-2 88v235q0 121 40 172q46 58 143 58q95 0 130.5 -54.5t35.5 -166.5zM134 492v-275q0 -75 9 -103q17 -51 75 -51q53 0 69 41.5t16 155.5v232q0 31 -0.5 46.5t-4.5 39.5
t-12.5 35.5t-24.5 20.5t-40 9q-51 0 -69 -36t-18 -115zM337 871l-98 -107h-64l53 107h109z" />
    <glyph glyph-name="Ocircumflex" unicode="&#xd4;" horiz-adv-x="437" 
d="M393 496v-200q0 -174 -35.5 -240t-144.5 -66q-47 0 -79 13.5t-49.5 33t-27 57t-11.5 70.5t-2 88v235q0 121 40 172q46 58 143 58q95 0 130.5 -54.5t35.5 -166.5zM134 492v-275q0 -75 9 -103q17 -51 75 -51q53 0 69 41.5t16 155.5v232q0 31 -0.5 46.5t-4.5 39.5
t-12.5 35.5t-24.5 20.5t-40 9q-51 0 -69 -36t-18 -115zM350 764h-80l-53 60l-58 -60h-73l101 107h65z" />
    <glyph glyph-name="Otilde" unicode="&#xd5;" horiz-adv-x="437" 
d="M393 496v-200q0 -174 -35.5 -240t-144.5 -66q-47 0 -79 13.5t-49.5 33t-27 57t-11.5 70.5t-2 88v235q0 121 40 172q46 58 143 58q95 0 130.5 -54.5t35.5 -166.5zM134 492v-275q0 -75 9 -103q17 -51 75 -51q53 0 69 41.5t16 155.5v232q0 31 -0.5 46.5t-4.5 39.5
t-12.5 35.5t-24.5 20.5t-40 9q-51 0 -69 -36t-18 -115zM310 858h36q-9 -89 -75 -89q-21 0 -61 15.5t-53 15.5q-10 0 -16 -5t-8 -10t-4 -16h-36q0 44 28 70q21 20 48 20q25 0 63 -15.5t51 -15.5q27 0 27 30z" />
    <glyph glyph-name="Odieresis" unicode="&#xd6;" horiz-adv-x="437" 
d="M393 496v-200q0 -174 -35.5 -240t-144.5 -66q-47 0 -79 13.5t-49.5 33t-27 57t-11.5 70.5t-2 88v235q0 121 40 172q46 58 143 58q95 0 130.5 -54.5t35.5 -166.5zM134 492v-275q0 -75 9 -103q17 -51 75 -51q53 0 69 41.5t16 155.5v232q0 31 -0.5 46.5t-4.5 39.5
t-12.5 35.5t-24.5 20.5t-40 9q-51 0 -69 -36t-18 -115zM350 764h-83v107h83v-107zM172 764h-83v107h83v-107z" />
    <glyph glyph-name="multiply" unicode="&#xd7;" horiz-adv-x="558" 
d="M447 184l-55 -59l-114 118l-105 -118l-53 48l109 121l-120 123l58 56l116 -119l108 120l51 -50l-110 -121z" />
    <glyph glyph-name="Oslash" unicode="&#xd8;" horiz-adv-x="437" 
d="M395 496v-200q0 -173 -36.5 -239.5t-145.5 -66.5q-95 0 -135 56l-23 -46l-36 21l37 76q-12 46 -12 155v235q0 121 40 172q46 58 143 58q77 0 119 -40l20 38l36 -19l-28 -57q21 -49 21 -143zM305 269v235l-170 -341q1 -29 8 -49q17 -52 75 -52q55 0 70 41.5t17 165.5z
M135 252l165 330q-15 61 -78 61q-50 0 -68.5 -34.5t-18.5 -113.5v-243z" />
    <glyph glyph-name="Ugrave" unicode="&#xd9;" horiz-adv-x="437" 
d="M301 706h89v-476q0 -71 -3 -102t-14 -56q-35 -82 -154 -82q-120 0 -156 77q-10 23 -13 50t-3 107v482h89v-535q0 -51 18 -78t67 -27q42 0 61 21t19 78v541zM264 764h-65l-97 107h109z" />
    <glyph glyph-name="Uacute" unicode="&#xda;" horiz-adv-x="437" 
d="M301 706h89v-476q0 -71 -3 -102t-14 -56q-35 -82 -154 -82q-120 0 -156 77q-10 23 -13 50t-3 107v482h89v-535q0 -51 18 -78t67 -27q42 0 61 21t19 78v541zM337 871l-98 -107h-64l53 107h109z" />
    <glyph glyph-name="Ucircumflex" unicode="&#xdb;" horiz-adv-x="437" 
d="M301 706h89v-476q0 -71 -3 -102t-14 -56q-35 -82 -154 -82q-120 0 -156 77q-10 23 -13 50t-3 107v482h89v-535q0 -51 18 -78t67 -27q42 0 61 21t19 78v541zM350 764h-80l-53 60l-58 -60h-73l101 107h65z" />
    <glyph glyph-name="Udieresis" unicode="&#xdc;" horiz-adv-x="437" 
d="M301 706h89v-476q0 -71 -3 -102t-14 -56q-35 -82 -154 -82q-120 0 -156 77q-10 23 -13 50t-3 107v482h89v-535q0 -51 18 -78t67 -27q42 0 61 21t19 78v541zM350 764h-83v107h83v-107zM172 764h-83v107h83v-107z" />
    <glyph glyph-name="Yacute" unicode="&#xdd;" horiz-adv-x="396" 
d="M396 706l-155 -428v-278h-91v278l-150 428h93l105 -353l105 353h93zM326 871l-98 -107h-64l53 107h109z" />
    <glyph glyph-name="Thorn" unicode="&#xde;" horiz-adv-x="417" 
d="M50 706h88v-117h57q67 0 101.5 -10.5t60.5 -43.5q33 -43 33 -134v-27q0 -54 -9 -91.5t-23.5 -59t-39 -33t-48.5 -15t-60 -3.5h-72v-172h-88v706zM138 508v-258h75q59 0 74.5 26t15.5 93q0 43 -2.5 65t-13 41.5t-32 26t-58.5 6.5h-59z" />
    <glyph glyph-name="germandbls" unicode="&#xdf;" horiz-adv-x="396" 
d="M44 0v559q0 29 4.5 51.5t17.5 47t43.5 38t76.5 13.5q41 0 70 -12.5t42.5 -27.5t21 -40t8.5 -38t1 -33q0 -31 -7 -52.5t-21.5 -32.5t-24.5 -15t-28 -9q65 -15 83 -52.5t18 -141.5q0 -96 -5 -133t-20 -64q-35 -61 -115 -61q-16 0 -40 4v68q17 -5 33 -5t27.5 4t18.5 14.5
t11 20.5t5.5 32t2 37t0.5 48q0 120 -12.5 155t-63.5 35q-15 0 -22 -1v72h17q36 0 50.5 14.5t14.5 61.5q0 18 -2 30.5t-8 26t-19.5 21t-34.5 7.5q-39 0 -50.5 -20.5t-11.5 -60.5v-561h-81z" />
    <glyph glyph-name="agrave" unicode="&#xe0;" horiz-adv-x="354" 
d="M109 336h-71v29q0 26 1 39t7 31t18 33q35 41 113 41q65 0 100 -35q32 -32 32 -102v-266q0 -52 4 -73.5t20 -32.5h-98v60q-33 -69 -104 -69q-33 0 -60 16q-52 31 -52 114q0 46 18 77t42.5 47t70 47t80.5 66v17q0 70 -61 70q-60 0 -60 -63v-46zM230 162v123
q-17 -18 -55 -44t-56 -51.5t-18 -67.5q0 -72 54 -72q33 0 56 29q19 25 19 83zM229 563h-65l-97 108h109z" />
    <glyph glyph-name="aacute" unicode="&#xe1;" horiz-adv-x="354" 
d="M109 336h-71v29q0 26 1 39t7 31t18 33q35 41 113 41q65 0 100 -35q32 -32 32 -102v-266q0 -52 4 -73.5t20 -32.5h-98v60q-33 -69 -104 -69q-33 0 -60 16q-52 31 -52 114q0 46 18 77t42.5 47t70 47t80.5 66v17q0 70 -61 70q-60 0 -60 -63v-46zM230 162v123
q-17 -18 -55 -44t-56 -51.5t-18 -67.5q0 -72 54 -72q33 0 56 29q19 25 19 83zM294 671l-98 -108h-64l53 108h109z" />
    <glyph glyph-name="acircumflex" unicode="&#xe2;" horiz-adv-x="354" 
d="M109 336h-71v29q0 26 1 39t7 31t18 33q35 41 113 41q65 0 100 -35q32 -32 32 -102v-266q0 -52 4 -73.5t20 -32.5h-98v60q-33 -69 -104 -69q-33 0 -60 16q-52 31 -52 114q0 46 18 77t42.5 47t70 47t80.5 66v17q0 70 -61 70q-60 0 -60 -63v-46zM230 162v123
q-17 -18 -55 -44t-56 -51.5t-18 -67.5q0 -72 54 -72q33 0 56 29q19 25 19 83zM314 563h-78l-54 63l-57 -63h-76l101 110h66z" />
    <glyph glyph-name="atilde" unicode="&#xe3;" horiz-adv-x="354" 
d="M109 336h-71v29q0 26 1 39t7 31t18 33q35 41 113 41q65 0 100 -35q32 -32 32 -102v-266q0 -52 4 -73.5t20 -32.5h-98v60q-33 -69 -104 -69q-33 0 -60 16q-52 31 -52 114q0 46 18 77t42.5 47t70 47t80.5 66v17q0 70 -61 70q-60 0 -60 -63v-46zM230 162v123
q-17 -18 -55 -44t-56 -51.5t-18 -67.5q0 -72 54 -72q33 0 56 29q19 25 19 83zM264 660h36q0 -34 -17 -62.5t-53 -28.5q-20 0 -58.5 15.5t-51.5 15.5q-24 0 -26 -31h-36q0 40 20.5 66t50.5 26q24 0 60.5 -15.5t49.5 -15.5q23 0 25 30z" />
    <glyph glyph-name="adieresis" unicode="&#xe4;" horiz-adv-x="354" 
d="M109 336h-71v29q0 26 1 39t7 31t18 33q35 41 113 41q65 0 100 -35q32 -32 32 -102v-266q0 -52 4 -73.5t20 -32.5h-98v60q-33 -69 -104 -69q-33 0 -60 16q-52 31 -52 114q0 46 18 77t42.5 47t70 47t80.5 66v17q0 70 -61 70q-60 0 -60 -63v-46zM230 162v123
q-17 -18 -55 -44t-56 -51.5t-18 -67.5q0 -72 54 -72q33 0 56 29q19 25 19 83zM290 563h-78v103h78v-103zM135 563h-78v103h78v-103z" />
    <glyph glyph-name="aring" unicode="&#xe5;" horiz-adv-x="354" 
d="M109 336h-71v29q0 26 1 39t7 31t18 33q35 41 113 41q65 0 100 -35q32 -32 32 -102v-266q0 -52 4 -73.5t20 -32.5h-98v60q-33 -69 -104 -69q-33 0 -60 16q-52 31 -52 114q0 46 18 77t42.5 47t70 47t80.5 66v17q0 70 -61 70q-60 0 -60 -63v-46zM230 162v123
q-17 -18 -55 -44t-56 -51.5t-18 -67.5q0 -72 54 -72q33 0 56 29q19 25 19 83zM255 628q0 -32 -23.5 -56t-57.5 -24q-33 0 -56.5 23.5t-23.5 56.5q0 34 23.5 57.5t56.5 23.5q37 0 59 -25t22 -56zM211 629q0 15 -10.5 26t-25.5 11q-16 0 -26.5 -11.5t-10.5 -25.5
q0 -15 11 -25.5t26 -10.5t25.5 10.5t10.5 25.5z" />
    <glyph glyph-name="ae" unicode="&#xe6;" horiz-adv-x="542" 
d="M505 162v-21q0 -150 -140 -150q-66 0 -109 47q-28 -26 -49.5 -36.5t-55.5 -10.5q-39 0 -65 14.5t-36.5 38t-13.5 39.5t-3 32q0 66 31 102q12 14 33.5 30t62 44t76.5 56v35q0 63 -56 63q-20 0 -32.5 -8.5t-17.5 -24t-6.5 -27t-1.5 -29.5v-19h-73v33q0 28 4 49t16 43
t39 34.5t67 12.5q59 0 99 -33q43 33 97 33q45 0 78 -21q25 -16 38 -42t15.5 -46.5t2.5 -55.5v-108h-195v-111q0 -40 18 -56.5t43 -16.5q20 0 33 9t18 27t6 29.5t1 31.5v13h76zM430 301v60q0 86 -62 86q-58 0 -58 -85v-61h120zM236 150v120q-13 -11 -41 -30t-43 -31.5
t-28.5 -35.5t-13.5 -50q0 -29 15 -48.5t43 -19.5q68 0 68 95z" />
    <glyph glyph-name="ccedilla" unicode="&#xe7;" horiz-adv-x="354" 
d="M244 186h76v-13q0 -95 -29.5 -136.5t-102.5 -44.5l-21 -60q24 10 45 10q29 0 49 -17.5t20 -46.5q0 -20 -13 -42q-31 -47 -96 -47q-35 0 -78 20l13 24q37 -14 55 -14q21 0 39.5 14t18.5 36q0 16 -11 27t-28 11q-13 0 -30 -13l-21 8l30 90q-81 5 -106 62q-18 38 -18 174v59
q0 117 28.5 169.5t116.5 52.5q83 0 111 -40.5t28 -121.5v-28h-76v26q0 26 -1.5 41t-7.5 31.5t-19 23.5t-35 7q-39 0 -51.5 -28.5t-12.5 -113.5v-133q0 -26 0.5 -38.5t3.5 -31t9.5 -27t19 -15.5t30.5 -7q39 0 51.5 29.5t12.5 102.5z" />
    <glyph glyph-name="egrave" unicode="&#xe8;" horiz-adv-x="354" 
d="M318 155v-20q0 -23 -4.5 -44t-17.5 -45.5t-43 -39.5t-74 -15q-91 0 -125 67q-11 24 -14.5 50t-3.5 114v83q0 40 2 66.5t10.5 55t23 44.5t41 26.5t63.5 10.5q142 0 142 -153v-120h-202v-56q0 -32 1.5 -49t7.5 -37t20 -28.5t37 -8.5q31 0 46 20t15 69v10h75zM243 299v45
q0 33 -3 52t-17.5 35t-42.5 16q-39 0 -51 -27t-12 -88v-33h126zM228 563h-65l-97 108h109z" />
    <glyph glyph-name="eacute" unicode="&#xe9;" horiz-adv-x="354" 
d="M318 155v-20q0 -23 -4.5 -44t-17.5 -45.5t-43 -39.5t-74 -15q-91 0 -125 67q-11 24 -14.5 50t-3.5 114v83q0 40 2 66.5t10.5 55t23 44.5t41 26.5t63.5 10.5q142 0 142 -153v-120h-202v-56q0 -32 1.5 -49t7.5 -37t20 -28.5t37 -8.5q31 0 46 20t15 69v10h75zM243 299v45
q0 33 -3 52t-17.5 35t-42.5 16q-39 0 -51 -27t-12 -88v-33h126zM295 671l-98 -108h-64l53 108h109z" />
    <glyph glyph-name="ecircumflex" unicode="&#xea;" horiz-adv-x="354" 
d="M318 155v-20q0 -23 -4.5 -44t-17.5 -45.5t-43 -39.5t-74 -15q-91 0 -125 67q-11 24 -14.5 50t-3.5 114v83q0 40 2 66.5t10.5 55t23 44.5t41 26.5t63.5 10.5q142 0 142 -153v-120h-202v-56q0 -32 1.5 -49t7.5 -37t20 -28.5t37 -8.5q31 0 46 20t15 69v10h75zM243 299v45
q0 33 -3 52t-17.5 35t-42.5 16q-39 0 -51 -27t-12 -88v-33h126zM314 563h-78l-54 63l-57 -63h-76l101 110h66z" />
    <glyph glyph-name="edieresis" unicode="&#xeb;" horiz-adv-x="354" 
d="M318 155v-20q0 -23 -4.5 -44t-17.5 -45.5t-43 -39.5t-74 -15q-91 0 -125 67q-11 24 -14.5 50t-3.5 114v83q0 40 2 66.5t10.5 55t23 44.5t41 26.5t63.5 10.5q142 0 142 -153v-120h-202v-56q0 -32 1.5 -49t7.5 -37t20 -28.5t37 -8.5q31 0 46 20t15 69v10h75zM243 299v45
q0 33 -3 52t-17.5 35t-42.5 16q-39 0 -51 -27t-12 -88v-33h126zM294 563h-78v103h78v-103zM139 563h-78v103h78v-103z" />
    <glyph glyph-name="igrave" unicode="&#xec;" horiz-adv-x="167" 
d="M123 0h-79v500h79v-500zM135 563h-65l-97 108h109z" />
    <glyph glyph-name="iacute" unicode="&#xed;" horiz-adv-x="167" 
d="M123 0h-79v500h79v-500zM201 671l-98 -108h-64l53 108h109z" />
    <glyph glyph-name="icircumflex" unicode="&#xee;" horiz-adv-x="167" 
d="M123 0h-79v500h79v-500zM221 563h-78l-54 63l-57 -63h-76l101 110h66z" />
    <glyph glyph-name="idieresis" unicode="&#xef;" horiz-adv-x="167" 
d="M123 0h-79v500h79v-500zM201 563h-78v103h78v-103zM46 563h-78v103h78v-103z" />
    <glyph glyph-name="eth" unicode="&#xf0;" horiz-adv-x="354" 
d="M334 622l-56 -17q27 -56 34 -106t7 -136v-137q0 -49 -1 -75.5t-8.5 -62t-21.5 -53.5t-41.5 -31t-67.5 -13q-143 0 -143 149v190q0 83 31.5 132t93.5 49q44 0 79 -42q-14 85 -30 115l-110 -34l-16 46l97 30q-25 30 -62 56l67 28q38 -29 55 -52l7 -10l69 22zM235 209v116
q0 29 -1.5 47t-7 36.5t-17 27t-30.5 8.5q-17 0 -28.5 -6.5t-17.5 -15.5t-9 -28t-3.5 -33.5t-0.5 -42.5v-148q0 -66 11 -91.5t43 -25.5q18 0 29.5 8.5t18 19.5t9.5 35t3.5 41.5t0.5 51.5z" />
    <glyph glyph-name="ntilde" unicode="&#xf1;" 
d="M331 0h-81v366q0 80 -59 80q-67 0 -67 -97v-349h-80v500h76v-46q40 55 108 55q60 0 86 -43q11 -18 14 -41t3 -73v-352zM273 660h36q0 -34 -17 -62.5t-53 -28.5q-20 0 -58.5 15.5t-51.5 15.5q-24 0 -26 -31h-36q0 40 20.5 66t50.5 26q24 0 60.5 -15.5t49.5 -15.5
q23 0 25 30z" />
    <glyph glyph-name="ograve" unicode="&#xf2;" horiz-adv-x="354" 
d="M318 343v-151q0 -32 -1 -49t-4.5 -45t-12.5 -43.5t-24 -32t-40.5 -24t-60.5 -7.5q-139 0 -139 158v165q0 100 29.5 147.5t115.5 47.5q38 0 65 -12t40.5 -28t21 -41.5t9 -42.5t1.5 -42zM235 211v142q0 25 -2 41t-15.5 32.5t-38.5 16.5q-36 0 -47.5 -26.5t-11.5 -86.5v-140
q0 -80 9 -108.5t46 -28.5q14 0 24.5 4.5t17 15.5t10.5 22t5.5 32.5t2 37.5t0.5 46zM228 563h-65l-97 108h109z" />
    <glyph glyph-name="oacute" unicode="&#xf3;" horiz-adv-x="354" 
d="M318 343v-151q0 -32 -1 -49t-4.5 -45t-12.5 -43.5t-24 -32t-40.5 -24t-60.5 -7.5q-139 0 -139 158v165q0 100 29.5 147.5t115.5 47.5q38 0 65 -12t40.5 -28t21 -41.5t9 -42.5t1.5 -42zM235 211v142q0 25 -2 41t-15.5 32.5t-38.5 16.5q-36 0 -47.5 -26.5t-11.5 -86.5v-140
q0 -80 9 -108.5t46 -28.5q14 0 24.5 4.5t17 15.5t10.5 22t5.5 32.5t2 37.5t0.5 46zM295 671l-98 -108h-64l53 108h109z" />
    <glyph glyph-name="ocircumflex" unicode="&#xf4;" horiz-adv-x="354" 
d="M318 343v-151q0 -32 -1 -49t-4.5 -45t-12.5 -43.5t-24 -32t-40.5 -24t-60.5 -7.5q-139 0 -139 158v165q0 100 29.5 147.5t115.5 47.5q38 0 65 -12t40.5 -28t21 -41.5t9 -42.5t1.5 -42zM235 211v142q0 25 -2 41t-15.5 32.5t-38.5 16.5q-36 0 -47.5 -26.5t-11.5 -86.5v-140
q0 -80 9 -108.5t46 -28.5q14 0 24.5 4.5t17 15.5t10.5 22t5.5 32.5t2 37.5t0.5 46zM314 563h-78l-54 63l-57 -63h-76l101 110h66z" />
    <glyph glyph-name="otilde" unicode="&#xf5;" horiz-adv-x="354" 
d="M318 343v-151q0 -32 -1 -49t-4.5 -45t-12.5 -43.5t-24 -32t-40.5 -24t-60.5 -7.5q-139 0 -139 158v165q0 100 29.5 147.5t115.5 47.5q38 0 65 -12t40.5 -28t21 -41.5t9 -42.5t1.5 -42zM235 211v142q0 25 -2 41t-15.5 32.5t-38.5 16.5q-36 0 -47.5 -26.5t-11.5 -86.5v-140
q0 -80 9 -108.5t46 -28.5q14 0 24.5 4.5t17 15.5t10.5 22t5.5 32.5t2 37.5t0.5 46zM265 660h36q0 -34 -17 -62.5t-53 -28.5q-20 0 -58.5 15.5t-51.5 15.5q-24 0 -26 -31h-36q0 40 20.5 66t50.5 26q24 0 60.5 -15.5t49.5 -15.5q23 0 25 30z" />
    <glyph glyph-name="odieresis" unicode="&#xf6;" horiz-adv-x="354" 
d="M318 343v-151q0 -32 -1 -49t-4.5 -45t-12.5 -43.5t-24 -32t-40.5 -24t-60.5 -7.5q-139 0 -139 158v165q0 100 29.5 147.5t115.5 47.5q38 0 65 -12t40.5 -28t21 -41.5t9 -42.5t1.5 -42zM235 211v142q0 25 -2 41t-15.5 32.5t-38.5 16.5q-36 0 -47.5 -26.5t-11.5 -86.5v-140
q0 -80 9 -108.5t46 -28.5q14 0 24.5 4.5t17 15.5t10.5 22t5.5 32.5t2 37.5t0.5 46zM294 563h-78v103h78v-103zM139 563h-78v103h78v-103z" />
    <glyph glyph-name="divide" unicode="&#xf7;" horiz-adv-x="559" 
d="M322 393h-83v102h83v-102zM480 261h-401v73h401v-73zM322 99h-83v102h83v-102z" />
    <glyph glyph-name="oslash" unicode="&#xf8;" horiz-adv-x="354" 
d="M300 511l28 -22l-28 -45q18 -37 18 -120v-120q0 -30 -0.5 -46.5t-3 -42.5t-8 -40.5t-16 -33t-25.5 -28t-38 -16t-53 -6.5q-72 0 -108 41l-21 -42l-31 22l31 57q-10 32 -10 99v146q0 100 29.5 147.5t115.5 47.5q62 0 98 -33zM234 206v119l-114 -198q2 -39 14 -56.5
t40 -17.5q40 0 50 32.5t10 120.5zM119 330v-133l112 196q-6 50 -53 50q-36 0 -47.5 -26.5t-11.5 -86.5z" />
    <glyph glyph-name="ugrave" unicode="&#xf9;" 
d="M331 0h-77v46q-43 -55 -107 -55q-38 0 -65 22q-25 21 -31.5 52.5t-6.5 96.5v338h80v-370q0 -46 19 -62.5t41 -16.5q24 0 39 11.5t20.5 32.5t7 35t1.5 35v335h79v-500zM239 563h-65l-97 108h109z" />
    <glyph glyph-name="uacute" unicode="&#xfa;" 
d="M331 0h-77v46q-43 -55 -107 -55q-38 0 -65 22q-25 21 -31.5 52.5t-6.5 96.5v338h80v-370q0 -46 19 -62.5t41 -16.5q24 0 39 11.5t20.5 32.5t7 35t1.5 35v335h79v-500zM305 671l-98 -108h-64l53 108h109z" />
    <glyph glyph-name="ucircumflex" unicode="&#xfb;" 
d="M331 0h-77v46q-43 -55 -107 -55q-38 0 -65 22q-25 21 -31.5 52.5t-6.5 96.5v338h80v-370q0 -46 19 -62.5t41 -16.5q24 0 39 11.5t20.5 32.5t7 35t1.5 35v335h79v-500zM325 563h-78l-54 63l-57 -63h-76l101 110h66z" />
    <glyph glyph-name="udieresis" unicode="&#xfc;" 
d="M331 0h-77v46q-43 -55 -107 -55q-38 0 -65 22q-25 21 -31.5 52.5t-6.5 96.5v338h80v-370q0 -46 19 -62.5t41 -16.5q24 0 39 11.5t20.5 32.5t7 35t1.5 35v335h79v-500zM307 563h-78v103h78v-103zM152 563h-78v103h78v-103z" />
    <glyph glyph-name="yacute" unicode="&#xfd;" horiz-adv-x="333" 
d="M235 500h85l-98 -498q-6 -33 -10.5 -50t-16 -43t-28.5 -42q-30 -30 -95 -30h-52v69q10 -1 30 -1q16 0 25.5 1t24 6t22 18t7.5 34q0 17 -10 61l-113 475h86l79 -402zM285 671l-98 -108h-64l53 108h109z" />
    <glyph glyph-name="thorn" unicode="&#xfe;" 
d="M44 706h79v-254q13 17 23 27t31.5 20t47.5 10q44 0 73 -27q19 -18 28.5 -48.5t11 -57.5t1.5 -86q0 -200 -20 -239q-30 -60 -94 -60q-61 0 -99 51v-201h-82v865zM255 161v186q0 98 -58 98q-70 0 -70 -124v-167q0 -44 16 -73.5t51 -29.5q21 0 34.5 10.5t18.5 30.5t6.5 34
t1.5 35z" />
    <glyph glyph-name="ydieresis" unicode="&#xff;" horiz-adv-x="333" 
d="M235 500h85l-98 -498q-6 -33 -10.5 -50t-16 -43t-28.5 -42q-30 -30 -95 -30h-52v69q10 -1 30 -1q16 0 25.5 1t24 6t22 18t7.5 34q0 17 -10 61l-113 475h86l79 -402zM284 563h-78v103h78v-103zM129 563h-78v103h78v-103z" />
    <glyph glyph-name="Amacron" unicode="&#x100;" horiz-adv-x="396" 
d="M396 0h-92l-25 136h-164l-24 -136h-91l152 706h88zM264 212l-69 363l-65 -363h134zM308 773h-223v64h223v-64z" />
    <glyph glyph-name="amacron" unicode="&#x101;" horiz-adv-x="354" 
d="M109 336h-71v29q0 26 1 39t7 31t18 33q35 41 113 41q65 0 100 -35q32 -32 32 -102v-266q0 -52 4 -73.5t20 -32.5h-98v60q-33 -69 -104 -69q-33 0 -60 16q-52 31 -52 114q0 46 18 77t42.5 47t70 47t80.5 66v17q0 70 -61 70q-60 0 -60 -63v-46zM230 162v123
q-17 -18 -55 -44t-56 -51.5t-18 -67.5q0 -72 54 -72q33 0 56 29q19 25 19 83zM292 575h-217v64h217v-64z" />
    <glyph glyph-name="Abreve" unicode="&#x102;" horiz-adv-x="396" 
d="M396 0h-92l-25 136h-164l-24 -136h-91l152 706h88zM264 212l-69 363l-65 -363h134zM249 871h48q0 -56 -29 -85.5t-70 -29.5q-43 0 -72.5 27t-29.5 88h48q0 -10 2 -20.5t14.5 -24t35.5 -13.5q22 0 35 13t15.5 24t2.5 21z" />
    <glyph glyph-name="abreve" unicode="&#x103;" horiz-adv-x="354" 
d="M109 336h-71v29q0 26 1 39t7 31t18 33q35 41 113 41q65 0 100 -35q32 -32 32 -102v-266q0 -52 4 -73.5t20 -32.5h-98v60q-33 -69 -104 -69q-33 0 -60 16q-52 31 -52 114q0 46 18 77t42.5 47t70 47t80.5 66v17q0 70 -61 70q-60 0 -60 -63v-46zM230 162v123
q-17 -18 -55 -44t-56 -51.5t-18 -67.5q0 -72 54 -72q33 0 56 29q19 25 19 83zM236 671h48q0 -56 -29 -85.5t-70 -29.5q-43 0 -72.5 27t-29.5 88h48q0 -10 2 -20.5t14.5 -24t35.5 -13.5q22 0 35 13t15.5 24t2.5 21z" />
    <glyph glyph-name="Aogonek" unicode="&#x104;" horiz-adv-x="396" 
d="M314 0h-10l-25 136h-164l-24 -136h-91l152 706h88l156 -706h-7q-14 -4 -33.5 -31t-19.5 -43q0 -27 33 -27q5 0 14 0.5t11 0.5v-61h-37q-91 0 -91 57q0 26 11 47.5t37 56.5zM264 212l-69 363l-65 -363h134z" />
    <glyph glyph-name="aogonek" unicode="&#x105;" horiz-adv-x="354" 
d="M239 0h-4v60q-33 -69 -104 -69q-33 0 -60 16q-52 31 -52 114q0 46 18 77t42.5 47t70 47t80.5 66v17q0 70 -61 70q-60 0 -60 -63v-46h-71v29q0 26 1 39t7 31t18 33q35 41 113 41q65 0 100 -35q32 -32 32 -102v-266q0 -52 4 -73.5t20 -32.5h-19q-13 -2 -33 -30t-20 -44
q0 -27 33 -27q5 0 14 0.5t11 0.5v-61h-37q-91 0 -91 57q0 26 11 47.5t37 56.5zM230 162v123q-17 -18 -55 -44t-56 -51.5t-18 -67.5q0 -72 54 -72q33 0 56 29q19 25 19 83z" />
    <glyph glyph-name="Cacute" unicode="&#x106;" horiz-adv-x="417" 
d="M380 249v-76q0 -137 -88 -171q-33 -12 -78 -12t-78 15t-50.5 36t-27 52t-12 55t-2.5 54v278q0 128 38 179q43 58 139 58q73 0 118 -45q20 -21 28.5 -52.5t8.5 -89.5v-46h-82v67q0 92 -73 92q-66 0 -80 -62q-10 -43 -10 -131v-177q0 -145 17 -174q20 -35 71 -35
q22 0 38 9.5t23.5 21.5t12 33t5 34t0.5 34v53h82zM327 871l-98 -107h-64l53 107h109z" />
    <glyph glyph-name="cacute" unicode="&#x107;" horiz-adv-x="354" 
d="M320 186v-13q0 -99 -32.5 -140.5t-113.5 -41.5q-92 0 -120 63q-18 38 -18 174v59q0 117 28.5 169.5t116.5 52.5q83 0 111 -40.5t28 -121.5v-28h-76v26q0 26 -1.5 41t-7.5 31.5t-19 23.5t-35 7q-39 0 -51.5 -28.5t-12.5 -113.5v-133q0 -26 0.5 -38.5t3.5 -31t9.5 -27
t19 -15.5t30.5 -7q39 0 51.5 29.5t12.5 102.5h76zM296 671l-98 -108h-64l53 108h109z" />
    <glyph glyph-name="Ccircumflex" unicode="&#x108;" horiz-adv-x="417" 
d="M380 249v-76q0 -137 -88 -171q-33 -12 -78 -12t-78 15t-50.5 36t-27 52t-12 55t-2.5 54v278q0 128 38 179q43 58 139 58q73 0 118 -45q20 -21 28.5 -52.5t8.5 -89.5v-46h-82v67q0 92 -73 92q-66 0 -80 -62q-10 -43 -10 -131v-177q0 -145 17 -174q20 -35 71 -35
q22 0 38 9.5t23.5 21.5t12 33t5 34t0.5 34v53h82zM356 764h-80l-53 60l-58 -60h-73l101 107h65z" />
    <glyph glyph-name="ccircumflex" unicode="&#x109;" horiz-adv-x="354" 
d="M320 186v-13q0 -99 -32.5 -140.5t-113.5 -41.5q-92 0 -120 63q-18 38 -18 174v59q0 117 28.5 169.5t116.5 52.5q83 0 111 -40.5t28 -121.5v-28h-76v26q0 26 -1.5 41t-7.5 31.5t-19 23.5t-35 7q-39 0 -51.5 -28.5t-12.5 -113.5v-133q0 -26 0.5 -38.5t3.5 -31t9.5 -27
t19 -15.5t30.5 -7q39 0 51.5 29.5t12.5 102.5h76zM319 563h-78l-54 63l-57 -63h-76l101 110h66z" />
    <glyph glyph-name="Cdotaccent" unicode="&#x10a;" horiz-adv-x="417" 
d="M380 249v-76q0 -137 -88 -171q-33 -12 -78 -12t-78 15t-50.5 36t-27 52t-12 55t-2.5 54v278q0 128 38 179q43 58 139 58q73 0 118 -45q20 -21 28.5 -52.5t8.5 -89.5v-46h-82v67q0 92 -73 92q-66 0 -80 -62q-10 -43 -10 -131v-177q0 -145 17 -174q20 -35 71 -35
q22 0 38 9.5t23.5 21.5t12 33t5 34t0.5 34v53h82zM258 764h-80v107h80v-107z" />
    <glyph glyph-name="cdotaccent" unicode="&#x10b;" horiz-adv-x="354" 
d="M320 186v-13q0 -99 -32.5 -140.5t-113.5 -41.5q-92 0 -120 63q-18 38 -18 174v59q0 117 28.5 169.5t116.5 52.5q83 0 111 -40.5t28 -121.5v-28h-76v26q0 26 -1.5 41t-7.5 31.5t-19 23.5t-35 7q-39 0 -51.5 -28.5t-12.5 -113.5v-133q0 -26 0.5 -38.5t3.5 -31t9.5 -27
t19 -15.5t30.5 -7q39 0 51.5 29.5t12.5 102.5h76zM222 563h-77v103h77v-103z" />
    <glyph glyph-name="Ccaron" unicode="&#x10c;" horiz-adv-x="417" 
d="M380 249v-76q0 -137 -88 -171q-33 -12 -78 -12t-78 15t-50.5 36t-27 52t-12 55t-2.5 54v278q0 128 38 179q43 58 139 58q73 0 118 -45q20 -21 28.5 -52.5t8.5 -89.5v-46h-82v67q0 92 -73 92q-66 0 -80 -62q-10 -43 -10 -131v-177q0 -145 17 -174q20 -35 71 -35
q22 0 38 9.5t23.5 21.5t12 33t5 34t0.5 34v53h82zM345 871l-101 -107h-65l-99 107h79l53 -63l58 63h75z" />
    <glyph glyph-name="ccaron" unicode="&#x10d;" horiz-adv-x="354" 
d="M320 186v-13q0 -99 -32.5 -140.5t-113.5 -41.5q-92 0 -120 63q-18 38 -18 174v59q0 117 28.5 169.5t116.5 52.5q83 0 111 -40.5t28 -121.5v-28h-76v26q0 26 -1.5 41t-7.5 31.5t-19 23.5t-35 7q-39 0 -51.5 -28.5t-12.5 -113.5v-133q0 -26 0.5 -38.5t3.5 -31t9.5 -27
t19 -15.5t30.5 -7q39 0 51.5 29.5t12.5 102.5h76zM311 674l-101 -110h-65l-98 110h80l53 -63l58 63h73z" />
    <glyph glyph-name="Dcaron" unicode="&#x10e;" horiz-adv-x="437" 
d="M50 706h133q45 0 68.5 -2t54.5 -14t51 -37q24 -30 30 -73.5t6 -175.5v-161q0 -129 -30 -179q-18 -30 -50 -45t-57 -17t-75 -2h-131v706zM138 625v-547h70q65 0 82 36t17 155v198q0 41 -1 60.5t-6.5 43t-16.5 32.5t-31.5 15.5t-51.5 6.5h-62zM335 871l-101 -107h-65
l-99 107h79l53 -63l58 63h75z" />
    <glyph glyph-name="dcaron" unicode="&#x10f;" 
d="M331 0h-75v53q-35 -62 -105 -62q-71 0 -93 55.5t-22 188.5v67q0 110 28 158.5t98 48.5q54 0 88 -48v245h81v-706zM252 235v67q0 32 -1.5 52.5t-8 44.5t-21.5 36t-39 12q-23 0 -37 -11t-20 -37t-7.5 -49t-1.5 -65v-111q0 -27 2 -45t8 -37t20 -28.5t36 -9.5q23 0 37.5 11
t21.5 37t9 54.5t2 78.5zM364 706h78v-61q0 -53 -15 -80.5t-63 -36.5v35q24 6 31 21.5t7 42.5h-38v79z" />
    <glyph glyph-name="Dcroat" unicode="&#x110;" horiz-adv-x="437" 
d="M50 0v355h-49v64h49v287h149q54 0 90 -10t56.5 -26t31 -47t13.5 -60.5t3 -79.5v-278q0 -64 -12 -105.5t-39 -63t-60.5 -29t-84.5 -7.5h-147zM138 625v-206h88v-64h-88v-277h43q27 0 41 0.5t30 5.5t23 9t15 20.5t10 30t4.5 46t2.5 60.5v82v112q0 44 -1 68t-5 48t-11 33.5
t-21.5 18.5t-33.5 11t-49 2h-48z" />
    <glyph glyph-name="dcroat" unicode="&#x111;" 
d="M331 0h-75v53q-35 -62 -105 -62q-71 0 -93 55.5t-22 188.5v67q0 110 28 158.5t98 48.5q54 0 88 -48v100h-99v60h99v85h81v-85h46v-60h-46v-561zM252 235v67q0 32 -1.5 52.5t-8 44.5t-21.5 36t-39 12q-23 0 -37 -11t-20 -37t-7.5 -49t-1.5 -65v-111q0 -27 2 -45t8 -37
t20 -28.5t36 -9.5q23 0 37.5 11t21.5 37t9 54.5t2 78.5z" />
    <glyph glyph-name="Emacron" unicode="&#x112;" horiz-adv-x="396" 
d="M368 0h-318v706h311v-79h-223v-210h195v-80h-195v-258h230v-79zM317 773h-223v64h223v-64z" />
    <glyph glyph-name="emacron" unicode="&#x113;" horiz-adv-x="354" 
d="M318 155v-20q0 -23 -4.5 -44t-17.5 -45.5t-43 -39.5t-74 -15q-91 0 -125 67q-11 24 -14.5 50t-3.5 114v83q0 40 2 66.5t10.5 55t23 44.5t41 26.5t63.5 10.5q142 0 142 -153v-120h-202v-56q0 -32 1.5 -49t7.5 -37t20 -28.5t37 -8.5q31 0 46 20t15 69v10h75zM243 299v45
q0 33 -3 52t-17.5 35t-42.5 16q-39 0 -51 -27t-12 -88v-33h126zM286 575h-217v64h217v-64z" />
    <glyph glyph-name="Ebreve" unicode="&#x114;" horiz-adv-x="396" 
d="M368 0h-318v706h311v-79h-223v-210h195v-80h-195v-258h230v-79zM264 871h48q0 -56 -29 -85.5t-70 -29.5q-43 0 -72.5 27t-29.5 88h48q0 -10 2 -20.5t14.5 -24t35.5 -13.5q22 0 35 13t15.5 24t2.5 21z" />
    <glyph glyph-name="ebreve" unicode="&#x115;" horiz-adv-x="354" 
d="M318 155v-20q0 -23 -4.5 -44t-17.5 -45.5t-43 -39.5t-74 -15q-91 0 -125 67q-11 24 -14.5 50t-3.5 114v83q0 40 2 66.5t10.5 55t23 44.5t41 26.5t63.5 10.5q142 0 142 -153v-120h-202v-56q0 -32 1.5 -49t7.5 -37t20 -28.5t37 -8.5q31 0 46 20t15 69v10h75zM243 299v45
q0 33 -3 52t-17.5 35t-42.5 16q-39 0 -51 -27t-12 -88v-33h126zM236 671h48q0 -56 -29 -85.5t-70 -29.5q-43 0 -72.5 27t-29.5 88h48q0 -10 2 -20.5t14.5 -24t35.5 -13.5q22 0 35 13t15.5 24t2.5 21z" />
    <glyph glyph-name="Edotaccent" unicode="&#x116;" horiz-adv-x="396" 
d="M368 0h-318v706h311v-79h-223v-210h195v-80h-195v-258h230v-79zM251 764h-80v107h80v-107z" />
    <glyph glyph-name="edotaccent" unicode="&#x117;" horiz-adv-x="354" 
d="M318 155v-20q0 -23 -4.5 -44t-17.5 -45.5t-43 -39.5t-74 -15q-91 0 -125 67q-11 24 -14.5 50t-3.5 114v83q0 40 2 66.5t10.5 55t23 44.5t41 26.5t63.5 10.5q142 0 142 -153v-120h-202v-56q0 -32 1.5 -49t7.5 -37t20 -28.5t37 -8.5q31 0 46 20t15 69v10h75zM243 299v45
q0 33 -3 52t-17.5 35t-42.5 16q-39 0 -51 -27t-12 -88v-33h126zM215 563h-77v103h77v-103z" />
    <glyph glyph-name="Eogonek" unicode="&#x118;" horiz-adv-x="396" 
d="M368 79v-79h-16q-20 -11 -36 -35.5t-16 -38.5q0 -27 33 -27q5 0 14 0.5t11 0.5v-61h-37q-91 0 -91 57q0 26 11 47.5t37 56.5h-228v706h311v-79h-223v-210h195v-80h-195v-258h230z" />
    <glyph glyph-name="eogonek" unicode="&#x119;" horiz-adv-x="354" 
d="M318 155v-20q0 -20 -1 -31.5t-6.5 -30t-19 -34.5t-35.5 -31q-23 -15 -41 -41.5t-18 -40.5q0 -27 33 -27q5 0 14 0.5t11 0.5v-61h-37q-91 0 -91 57q0 39 41 95q-82 3 -114 67q-11 24 -14.5 50t-3.5 114v83q0 40 2 66.5t10.5 55t23 44.5t41 26.5t63.5 10.5q142 0 142 -153
v-120h-202v-56q0 -32 1.5 -49t7.5 -37t20 -28.5t37 -8.5q31 0 46 20t15 69v10h75zM243 299v45q0 33 -3 52t-17.5 35t-42.5 16q-39 0 -51 -27t-12 -88v-33h126z" />
    <glyph glyph-name="Ecaron" unicode="&#x11a;" horiz-adv-x="396" 
d="M368 0h-318v706h311v-79h-223v-210h195v-80h-195v-258h230v-79zM343 871l-101 -107h-65l-99 107h79l53 -63l58 63h75z" />
    <glyph glyph-name="ecaron" unicode="&#x11b;" horiz-adv-x="354" 
d="M318 155v-20q0 -23 -4.5 -44t-17.5 -45.5t-43 -39.5t-74 -15q-91 0 -125 67q-11 24 -14.5 50t-3.5 114v83q0 40 2 66.5t10.5 55t23 44.5t41 26.5t63.5 10.5q142 0 142 -153v-120h-202v-56q0 -32 1.5 -49t7.5 -37t20 -28.5t37 -8.5q31 0 46 20t15 69v10h75zM243 299v45
q0 33 -3 52t-17.5 35t-42.5 16q-39 0 -51 -27t-12 -88v-33h126zM309 674l-101 -110h-65l-98 110h80l53 -63l58 63h73z" />
    <glyph glyph-name="Gcircumflex" unicode="&#x11c;" horiz-adv-x="437" 
d="M395 0h-74v49q-54 -59 -126 -59q-107 0 -137 97q-14 48 -14 167v227q0 116 36.5 176t141.5 60q54 0 89 -13t51 -38t21.5 -49t5.5 -59v-68h-83v64q0 89 -80 89q-64 0 -79 -45t-15 -185v-114q0 -165 13 -195q20 -42 71 -42q37 0 64 23q16 14 24.5 40.5t8.5 91.5v72h-104v76
h186v-365zM360 764h-80l-53 60l-58 -60h-73l101 107h65z" />
    <glyph glyph-name="gcircumflex" unicode="&#x11d;" 
d="M331 500v-529q0 -76 -44.5 -107.5t-110.5 -31.5q-62 0 -99 33t-37 88v7h74q0 -64 66 -64q40 0 55.5 21.5t15.5 61.5v73l-9 -12q-32 -43 -92 -43q-59 0 -89 44q-26 37 -26 137v152q0 36 4.5 64t17 56t38.5 43.5t65 15.5q62 0 97 -53v44h74zM117 306v-135q0 -25 1.5 -41
t7.5 -35t19.5 -28t35.5 -9q72 0 72 115v137q0 35 -2 57.5t-9 44t-22 31.5t-38 10q-18 0 -30.5 -8t-19 -20t-10 -33t-4.5 -39t-1 -47zM321 563h-78l-54 63l-57 -63h-76l101 110h66z" />
    <glyph glyph-name="Gbreve" unicode="&#x11e;" horiz-adv-x="437" 
d="M395 0h-74v49q-54 -59 -126 -59q-107 0 -137 97q-14 48 -14 167v227q0 116 36.5 176t141.5 60q54 0 89 -13t51 -38t21.5 -49t5.5 -59v-68h-83v64q0 89 -80 89q-64 0 -79 -45t-15 -185v-114q0 -165 13 -195q20 -42 71 -42q37 0 64 23q16 14 24.5 40.5t8.5 91.5v72h-104v76
h186v-365zM276 871h48q0 -56 -29 -85.5t-70 -29.5q-43 0 -72.5 27t-29.5 88h48q0 -10 2 -20.5t14.5 -24t35.5 -13.5q22 0 35 13t15.5 24t2.5 21z" />
    <glyph glyph-name="gbreve" unicode="&#x11f;" 
d="M331 500v-529q0 -76 -44.5 -107.5t-110.5 -31.5q-62 0 -99 33t-37 88v7h74q0 -64 66 -64q40 0 55.5 21.5t15.5 61.5v73l-9 -12q-32 -43 -92 -43q-59 0 -89 44q-26 37 -26 137v152q0 36 4.5 64t17 56t38.5 43.5t65 15.5q62 0 97 -53v44h74zM117 306v-135q0 -25 1.5 -41
t7.5 -35t19.5 -28t35.5 -9q72 0 72 115v137q0 35 -2 57.5t-9 44t-22 31.5t-38 10q-18 0 -30.5 -8t-19 -20t-10 -33t-4.5 -39t-1 -47zM241 671h48q0 -56 -29 -85.5t-70 -29.5q-43 0 -72.5 27t-29.5 88h48q0 -10 2 -20.5t14.5 -24t35.5 -13.5q22 0 35 13t15.5 24t2.5 21z" />
    <glyph glyph-name="Gdotaccent" unicode="&#x120;" horiz-adv-x="437" 
d="M395 0h-74v49q-54 -59 -126 -59q-107 0 -137 97q-14 48 -14 167v227q0 116 36.5 176t141.5 60q54 0 89 -13t51 -38t21.5 -49t5.5 -59v-68h-83v64q0 89 -80 89q-64 0 -79 -45t-15 -185v-114q0 -165 13 -195q20 -42 71 -42q37 0 64 23q16 14 24.5 40.5t8.5 91.5v72h-104v76
h186v-365zM264 764h-80v107h80v-107z" />
    <glyph glyph-name="gdotaccent" unicode="&#x121;" 
d="M331 500v-529q0 -76 -44.5 -107.5t-110.5 -31.5q-62 0 -99 33t-37 88v7h74q0 -64 66 -64q40 0 55.5 21.5t15.5 61.5v73l-9 -12q-32 -43 -92 -43q-59 0 -89 44q-26 37 -26 137v152q0 36 4.5 64t17 56t38.5 43.5t65 15.5q62 0 97 -53v44h74zM117 306v-135q0 -25 1.5 -41
t7.5 -35t19.5 -28t35.5 -9q72 0 72 115v137q0 35 -2 57.5t-9 44t-22 31.5t-38 10q-18 0 -30.5 -8t-19 -20t-10 -33t-4.5 -39t-1 -47zM226 563h-77v103h77v-103z" />
    <glyph glyph-name="Gcommaaccent" unicode="&#x122;" horiz-adv-x="437" 
d="M395 0h-74v49q-54 -59 -126 -59q-107 0 -137 97q-14 48 -14 167v227q0 116 36.5 176t141.5 60q54 0 89 -13t51 -38t21.5 -49t5.5 -59v-68h-83v64q0 89 -80 89q-64 0 -79 -45t-15 -185v-114q0 -165 13 -195q20 -42 71 -42q37 0 64 23q16 14 24.5 40.5t8.5 91.5v72h-104v76
h186v-365zM183 -30h71v-42q0 -35 -16.5 -54t-54.5 -25v26q30 8 30 34h-30v61z" />
    <glyph glyph-name="gcommaaccent" unicode="&#x123;" 
d="M331 500v-529q0 -76 -44.5 -107.5t-110.5 -31.5q-62 0 -99 33t-37 88v7h74q0 -64 66 -64q40 0 55.5 21.5t15.5 61.5v73l-9 -12q-32 -43 -92 -43q-59 0 -89 44q-26 37 -26 137v152q0 36 4.5 64t17 56t38.5 43.5t65 15.5q62 0 97 -53v44h74zM117 306v-135q0 -25 1.5 -41
t7.5 -35t19.5 -28t35.5 -9q72 0 72 115v137q0 35 -2 57.5t-9 44t-22 31.5t-38 10q-18 0 -30.5 -8t-19 -20t-10 -33t-4.5 -39t-1 -47zM213 564h-71v42q0 35 16.5 54t54.5 25v-26q-30 -8 -30 -34h30v-61z" />
    <glyph glyph-name="Hcircumflex" unicode="&#x124;" horiz-adv-x="437" 
d="M387 0h-88v329h-161v-329h-88v706h88v-300h161v300h88v-706zM355 764h-80l-53 60l-58 -60h-73l101 107h65z" />
    <glyph glyph-name="hcircumflex" unicode="&#x125;" 
d="M331 0h-79v317q0 29 -0.5 45t-4 35t-10 27.5t-18 15t-29.5 6.5q-23 0 -37.5 -9.5t-20.5 -30.5t-7.5 -38.5t-1.5 -48.5v-319h-79v706h79v-251q37 54 101 54q29 0 50 -10.5t32 -25.5t17 -39t7 -41.5t1 -42.5v-350zM219 764h-80l-53 60l-58 -60h-73l101 107h65z" />
    <glyph glyph-name="Hbar" unicode="&#x126;" horiz-adv-x="437" 
d="M10 527v70h40v109h88v-109h161v109h88v-109h41v-70h-41v-527h-88v329h-161v-329h-88v527h-40zM138 406h161v121h-161v-121z" />
    <glyph glyph-name="hbar" unicode="&#x127;" 
d="M222 561h-99v-106q37 54 101 54q29 0 50 -10.5t32 -25.5t17 -39t7 -41.5t1 -42.5v-350h-79v317q0 29 -0.5 45t-4 35t-10 27.5t-18 15t-29.5 6.5q-23 0 -37.5 -9.5t-20.5 -30.5t-7.5 -38.5t-1.5 -48.5v-319h-79v561h-47v60h47v85h79v-85h99v-60z" />
    <glyph glyph-name="Itilde" unicode="&#x128;" horiz-adv-x="187" 
d="M137 0h-87v706h87v-706zM184 858h36q-9 -89 -75 -89q-21 0 -61 15.5t-53 15.5q-10 0 -16 -5t-8 -10t-4 -16h-36q0 44 28 70q21 20 48 20q25 0 63 -15.5t51 -15.5q27 0 27 30z" />
    <glyph glyph-name="itilde" unicode="&#x129;" horiz-adv-x="167" 
d="M123 0h-79v500h79v-500zM169 660h36q0 -34 -17 -62.5t-53 -28.5q-20 0 -58.5 15.5t-51.5 15.5q-24 0 -26 -31h-36q0 40 20.5 66t50.5 26q24 0 60.5 -15.5t49.5 -15.5q23 0 25 30z" />
    <glyph glyph-name="uni012A" unicode="&#x12a;" horiz-adv-x="187" 
d="M137 0h-87v706h87v-706zM193 773h-199v64h199v-64z" />
    <glyph glyph-name="imacron" unicode="&#x12b;" horiz-adv-x="167" 
d="M123 0h-79v500h79v-500zM178 575h-189v64h189v-64z" />
    <glyph glyph-name="Ibreve" unicode="&#x12c;" horiz-adv-x="187" 
d="M137 0h-87v706h87v-706zM146 871h48q0 -56 -29 -85.5t-70 -29.5q-43 0 -72.5 27t-29.5 88h48q0 -10 2 -20.5t14.5 -24t35.5 -13.5q22 0 35 13t15.5 24t2.5 21z" />
    <glyph glyph-name="uni012D" unicode="&#x12d;" horiz-adv-x="167" 
d="M123 0h-79v500h79v-500zM136 671h48q0 -56 -29 -85.5t-70 -29.5q-43 0 -72.5 27t-29.5 88h48q0 -10 2 -20.5t14.5 -24t35.5 -13.5q22 0 35 13t15.5 24t2.5 21z" />
    <glyph glyph-name="Iogonek" unicode="&#x12e;" horiz-adv-x="187" 
d="M50 706h87v-706q-46 -49 -46 -74q0 -27 33 -27q5 0 14 0.5t11 0.5v-61h-37q-91 0 -91 57q0 26 11 47.5t37 56.5h-19v706z" />
    <glyph glyph-name="iogonek" unicode="&#x12f;" horiz-adv-x="167" 
d="M44 500h79v-500q-45 -52 -45 -74q0 -27 33 -27q5 0 14 0.5t11 0.5v-61h-37q-91 0 -91 57q0 26 11 47.5t37 56.5h-12v500zM123 588h-79v103h79v-103z" />
    <glyph glyph-name="Idotaccent" unicode="&#x130;" horiz-adv-x="187" 
d="M137 0h-87v706h87v-706zM134 764h-80v107h80v-107z" />
    <glyph glyph-name="dotlessi" unicode="&#x131;" horiz-adv-x="167" 
d="M123 0h-79v500h79v-500z" />
    <glyph glyph-name="IJ" unicode="&#x132;" horiz-adv-x="583" 
d="M137 0h-87v706h87v-706zM536 706v-517q0 -33 -1 -51.5t-9 -45.5t-24 -47q-46 -56 -140 -56q-63 0 -103 32q-33 26 -43 63t-10 92v37h85v-64q0 -84 75 -84q44 0 63 26.5t19 87.5v527h88z" />
    <glyph glyph-name="ij" unicode="&#x133;" horiz-adv-x="334" 
d="M123 588h-79v103h79v-103zM123 0h-79v500h79v-500zM290 587h-79v104h79v-104zM290 500v-518q0 -38 -4 -61t-17 -46t-41.5 -33t-74.5 -10q-6 0 -18 0.5t-15 0.5v66q2 0 12 -0.5t15 -0.5q43 0 53.5 17t10.5 63v522h79z" />
    <glyph glyph-name="Jcircumflex" unicode="&#x134;" horiz-adv-x="396" 
d="M349 706v-517q0 -33 -1 -51.5t-9 -45.5t-24 -47q-46 -56 -140 -56q-63 0 -103 32q-33 26 -43 63t-10 92v37h85v-64q0 -84 75 -84q44 0 63 26.5t19 87.5v527h88zM443 764h-80l-53 60l-58 -60h-73l101 107h65z" />
    <glyph glyph-name="jcircumflex" unicode="&#x135;" horiz-adv-x="167" 
d="M123 500v-518q0 -38 -4 -61t-17 -46t-41.5 -33t-74.5 -10q-6 0 -18 0.5t-15 0.5v66q3 0 12 -0.5t15 -0.5q43 0 53.5 17t10.5 63v522h79zM220 563h-87l-54 63l-57 -63h-67l101 110h66z" />
    <glyph glyph-name="Kcommaaccent" unicode="&#x136;" horiz-adv-x="417" 
d="M417 0h-98l-125 361l-57 -85v-276h-87v706h87v-304l182 304h98l-167 -266zM188 -30h71v-42q0 -35 -16.5 -54t-54.5 -25v26q30 8 30 34h-30v61z" />
    <glyph glyph-name="kcommaaccent" unicode="&#x137;" horiz-adv-x="354" 
d="M363 500l-135 -194l128 -306h-85l-97 232l-51 -70v-162h-79v706h79v-433l148 227h92zM155 -30h71v-42q0 -35 -16.5 -54t-54.5 -25v26q30 8 30 34h-30v61z" />
    <glyph glyph-name="kgreenlandic" unicode="&#x138;" horiz-adv-x="354" 
d="M363 500l-135 -194l128 -306h-85l-97 232l-51 -70v-162h-79v500h79v-227l148 227h92z" />
    <glyph glyph-name="Lacute" unicode="&#x139;" horiz-adv-x="354" 
d="M347 0h-297v706h90v-627h207v-79zM228 871l-98 -107h-64l53 107h109z" />
    <glyph glyph-name="lacute" unicode="&#x13a;" horiz-adv-x="167" 
d="M124 0h-81v706h81v-706zM211 871l-98 -107h-64l53 107h109z" />
    <glyph glyph-name="Lcommaaccent" unicode="&#x13b;" horiz-adv-x="354" 
d="M347 0h-297v706h90v-627h207v-79zM163 -30h71v-42q0 -35 -16.5 -54t-54.5 -25v26q30 8 30 34h-30v61z" />
    <glyph glyph-name="lcommaaccent" unicode="&#x13c;" horiz-adv-x="167" 
d="M124 0h-81v706h81v-706zM48 -30h71v-42q0 -35 -16.5 -54t-54.5 -25v26q30 8 30 34h-30v61z" />
    <glyph glyph-name="Lcaron" unicode="&#x13d;" horiz-adv-x="354" 
d="M347 0h-297v706h90v-627h207v-79zM173 706h78v-61q0 -53 -15 -80.5t-63 -36.5v35q24 6 31 21.5t7 42.5h-38v79z" />
    <glyph glyph-name="lcaron" unicode="&#x13e;" horiz-adv-x="167" 
d="M124 0h-81v706h81v-706zM157 706h78v-61q0 -53 -15 -80.5t-63 -36.5v35q24 6 31 21.5t7 42.5h-38v79z" />
    <glyph glyph-name="Ldot" unicode="&#x13f;" horiz-adv-x="354" 
d="M347 0h-297v706h90v-627h207v-79zM309 322h-87v111h87v-111z" />
    <glyph glyph-name="ldot" unicode="&#x140;" horiz-adv-x="240" 
d="M124 0h-81v706h81v-706zM244 315h-79v105h79v-105z" />
    <glyph glyph-name="Lslash" unicode="&#x141;" horiz-adv-x="354" 
d="M347 0h-297v250l-50 -55v88l50 55v368h90v-271l129 143v-87l-129 -143v-269h207v-79z" />
    <glyph glyph-name="lslash" unicode="&#x142;" horiz-adv-x="167" 
d="M166 443l-42 -47v-396h-81v307l-43 -47v84l43 47v315h81v-227l42 47v-83z" />
    <glyph glyph-name="Nacute" unicode="&#x143;" horiz-adv-x="437" 
d="M387 0h-124l-138 612q8 -419 12 -612h-87v706h121l143 -618q-10 525 -12 618h85v-706zM332 871l-98 -107h-64l53 107h109z" />
    <glyph glyph-name="nacute" unicode="&#x144;" 
d="M331 0h-81v366q0 80 -59 80q-67 0 -67 -97v-349h-80v500h76v-46q40 55 108 55q60 0 86 -43q11 -18 14 -41t3 -73v-352zM298 671l-98 -108h-64l53 108h109z" />
    <glyph glyph-name="Ncommaaccent" unicode="&#x145;" horiz-adv-x="437" 
d="M387 0h-124l-138 612q8 -419 12 -612h-87v706h121l143 -618q-10 525 -12 618h85v-706zM182 -30h71v-42q0 -35 -16.5 -54t-54.5 -25v26q30 8 30 34h-30v61z" />
    <glyph glyph-name="ncommaaccent" unicode="&#x146;" 
d="M331 0h-81v366q0 80 -59 80q-67 0 -67 -97v-349h-80v500h76v-46q40 55 108 55q60 0 86 -43q11 -18 14 -41t3 -73v-352zM153 -30h71v-42q0 -35 -16.5 -54t-54.5 -25v26q30 8 30 34h-30v61z" />
    <glyph glyph-name="Ncaron" unicode="&#x147;" horiz-adv-x="437" 
d="M387 0h-124l-138 612q8 -419 12 -612h-87v706h121l143 -618q-10 525 -12 618h85v-706zM351 871l-101 -107h-65l-99 107h79l53 -63l58 63h75z" />
    <glyph glyph-name="ncaron" unicode="&#x148;" 
d="M331 0h-81v366q0 80 -59 80q-67 0 -67 -97v-349h-80v500h76v-46q40 55 108 55q60 0 86 -43q11 -18 14 -41t3 -73v-352zM319 674l-101 -110h-65l-98 110h80l53 -63l58 63h73z" />
    <glyph glyph-name="napostrophe" unicode="&#x149;" 
d="M331 0h-81v366q0 80 -59 80q-67 0 -67 -97v-349h-80v500h76v-46q40 55 108 55q60 0 86 -43q11 -18 14 -41t3 -73v-352zM9 706h78v-61q0 -53 -15 -80.5t-63 -36.5v35q24 6 31 21.5t7 42.5h-38v79z" />
    <glyph glyph-name="Eng" unicode="&#x14a;" horiz-adv-x="437" 
d="M387 706v-744q0 -74 -32.5 -102t-86.5 -28q-23 0 -33 1v70q11 -1 27 -1q45 0 45 55v21l-182 634q8 -419 12 -612h-87v706h121l141 -504q-8 411 -10 504h85z" />
    <glyph glyph-name="eng" unicode="&#x14b;" 
d="M124 0h-80v500h76v-46q40 55 108 55q60 0 86 -43q11 -18 14 -41t3 -73v-367q0 -84 -25 -117t-94 -33q-11 0 -39 2v68q20 -2 31 -2q25 0 35.5 13.5t10.5 48.5v401q0 80 -59 80q-67 0 -67 -97v-349z" />
    <glyph glyph-name="Omacron" unicode="&#x14c;" horiz-adv-x="437" 
d="M393 496v-200q0 -174 -35.5 -240t-144.5 -66q-47 0 -79 13.5t-49.5 33t-27 57t-11.5 70.5t-2 88v235q0 121 40 172q46 58 143 58q95 0 130.5 -54.5t35.5 -166.5zM134 492v-275q0 -75 9 -103q17 -51 75 -51q53 0 69 41.5t16 155.5v232q0 31 -0.5 46.5t-4.5 39.5
t-12.5 35.5t-24.5 20.5t-40 9q-51 0 -69 -36t-18 -115zM330 773h-223v64h223v-64z" />
    <glyph glyph-name="omacron" unicode="&#x14d;" horiz-adv-x="354" 
d="M318 343v-151q0 -32 -1 -49t-4.5 -45t-12.5 -43.5t-24 -32t-40.5 -24t-60.5 -7.5q-139 0 -139 158v165q0 100 29.5 147.5t115.5 47.5q38 0 65 -12t40.5 -28t21 -41.5t9 -42.5t1.5 -42zM235 211v142q0 25 -2 41t-15.5 32.5t-38.5 16.5q-36 0 -47.5 -26.5t-11.5 -86.5v-140
q0 -80 9 -108.5t46 -28.5q14 0 24.5 4.5t17 15.5t10.5 22t5.5 32.5t2 37.5t0.5 46zM287 575h-217v64h217v-64z" />
    <glyph glyph-name="Obreve" unicode="&#x14e;" horiz-adv-x="437" 
d="M393 496v-200q0 -174 -35.5 -240t-144.5 -66q-47 0 -79 13.5t-49.5 33t-27 57t-11.5 70.5t-2 88v235q0 121 40 172q46 58 143 58q95 0 130.5 -54.5t35.5 -166.5zM134 492v-275q0 -75 9 -103q17 -51 75 -51q53 0 69 41.5t16 155.5v232q0 31 -0.5 46.5t-4.5 39.5
t-12.5 35.5t-24.5 20.5t-40 9q-51 0 -69 -36t-18 -115zM271 871h48q0 -56 -29 -85.5t-70 -29.5q-43 0 -72.5 27t-29.5 88h48q0 -10 2 -20.5t14.5 -24t35.5 -13.5q22 0 35 13t15.5 24t2.5 21z" />
    <glyph glyph-name="obreve" unicode="&#x14f;" horiz-adv-x="354" 
d="M318 343v-151q0 -32 -1 -49t-4.5 -45t-12.5 -43.5t-24 -32t-40.5 -24t-60.5 -7.5q-139 0 -139 158v165q0 100 29.5 147.5t115.5 47.5q38 0 65 -12t40.5 -28t21 -41.5t9 -42.5t1.5 -42zM235 211v142q0 25 -2 41t-15.5 32.5t-38.5 16.5q-36 0 -47.5 -26.5t-11.5 -86.5v-140
q0 -80 9 -108.5t46 -28.5q14 0 24.5 4.5t17 15.5t10.5 22t5.5 32.5t2 37.5t0.5 46zM229 671h48q0 -56 -29 -85.5t-70 -29.5q-43 0 -72.5 27t-29.5 88h48q0 -10 2 -20.5t14.5 -24t35.5 -13.5q22 0 35 13t15.5 24t2.5 21z" />
    <glyph glyph-name="Ohungarumlaut" unicode="&#x150;" horiz-adv-x="437" 
d="M393 496v-200q0 -174 -35.5 -240t-144.5 -66q-47 0 -79 13.5t-49.5 33t-27 57t-11.5 70.5t-2 88v235q0 121 40 172q46 58 143 58q95 0 130.5 -54.5t35.5 -166.5zM134 492v-275q0 -75 9 -103q17 -51 75 -51q53 0 69 41.5t16 155.5v232q0 31 -0.5 46.5t-4.5 39.5
t-12.5 35.5t-24.5 20.5t-40 9q-51 0 -69 -36t-18 -115zM271 871l-94 -107h-57l53 107h98zM403 871l-94 -107h-57l53 107h98z" />
    <glyph glyph-name="ohungarumlaut" unicode="&#x151;" horiz-adv-x="354" 
d="M318 343v-151q0 -32 -1 -49t-4.5 -45t-12.5 -43.5t-24 -32t-40.5 -24t-60.5 -7.5q-139 0 -139 158v165q0 100 29.5 147.5t115.5 47.5q38 0 65 -12t40.5 -28t21 -41.5t9 -42.5t1.5 -42zM235 211v142q0 25 -2 41t-15.5 32.5t-38.5 16.5q-36 0 -47.5 -26.5t-11.5 -86.5v-140
q0 -80 9 -108.5t46 -28.5q14 0 24.5 4.5t17 15.5t10.5 22t5.5 32.5t2 37.5t0.5 46zM231 671l-94 -108h-57l53 108h98zM363 671l-94 -108h-57l53 108h98z" />
    <glyph glyph-name="OE" unicode="&#x152;" horiz-adv-x="646" 
d="M626 0h-256q-17 0 -73 -5t-84 -5q-34 0 -60 8.5t-43.5 22t-30.5 35.5t-19.5 43t-10 50.5t-4.5 52t-1 53.5v169q0 39 0.5 61t4 57.5t10 56.5t20 46t32.5 39t48 23.5t66 9.5q23 0 68 -5.5t80 -5.5h242v-79h-209v-210h178v-80h-178v-258h220v-79zM321 247v273q0 27 -2.5 45
t-11 37.5t-27 29.5t-47.5 10q-56 0 -79 -43q-9 -17 -13.5 -45.5t-5 -53.5t-0.5 -79v-198q0 -77 19 -117t79 -40q43 0 63 24q15 17 20 51t5 106z" />
    <glyph glyph-name="oe" unicode="&#x153;" horiz-adv-x="542" 
d="M312 238v-100q0 -38 12 -61t49 -23q35 0 46.5 25.5t11.5 83.5h75q0 -69 -14.5 -103t-44.5 -51q-31 -18 -75 -18q-53 0 -97 41q-41 -41 -107 -41q-67 0 -102 42q-21 25 -25.5 63t-4.5 123v115q0 88 33 131.5t108 43.5q53 0 99 -37q44 37 95 37q56 0 95.5 -35.5
t39.5 -122.5v-113h-194zM313 303h117v47q0 95 -60 95q-57 0 -57 -81v-61zM237 202v151q0 93 -58 93q-36 0 -49 -28.5t-13 -87.5v-140q0 -77 11 -107t47 -30q22 0 35 9t19 32.5t7 44t1 63.5z" />
    <glyph glyph-name="Racute" unicode="&#x154;" horiz-adv-x="437" 
d="M422 0h-92l-120 310h-73v-310h-87v706h154q96 0 141.5 -40t45.5 -156q0 -169 -95 -190zM137 626v-247h62q66 0 85 26.5t19 107.5q0 68 -23 90.5t-80 22.5h-63zM301 871l-98 -107h-64l53 107h109z" />
    <glyph glyph-name="racute" unicode="&#x155;" horiz-adv-x="250" 
d="M36 500h77v-94q17 45 48 74t74 29h13v-84h-11q-39 0 -64.5 -11.5t-36.5 -34.5t-14.5 -45t-3.5 -55v-279h-82v500zM228 671l-98 -108h-64l53 108h109z" />
    <glyph glyph-name="Rcommaaccent" unicode="&#x156;" horiz-adv-x="437" 
d="M422 0h-92l-120 310h-73v-310h-87v706h154q96 0 141.5 -40t45.5 -156q0 -169 -95 -190zM137 626v-247h62q66 0 85 26.5t19 107.5q0 68 -23 90.5t-80 22.5h-63zM192 -30h71v-42q0 -35 -16.5 -54t-54.5 -25v26q30 8 30 34h-30v61z" />
    <glyph glyph-name="rcommaaccent" unicode="&#x157;" horiz-adv-x="250" 
d="M36 500h77v-94q17 45 48 74t74 29h13v-84h-11q-39 0 -64.5 -11.5t-36.5 -34.5t-14.5 -45t-3.5 -55v-279h-82v500zM41 -30h71v-42q0 -35 -16.5 -54t-54.5 -25v26q30 8 30 34h-30v61z" />
    <glyph glyph-name="Rcaron" unicode="&#x158;" horiz-adv-x="437" 
d="M422 0h-92l-120 310h-73v-310h-87v706h154q96 0 141.5 -40t45.5 -156q0 -169 -95 -190zM137 626v-247h62q66 0 85 26.5t19 107.5q0 68 -23 90.5t-80 22.5h-63zM323 871l-101 -107h-65l-99 107h79l53 -63l58 63h75z" />
    <glyph glyph-name="rcaron" unicode="&#x159;" horiz-adv-x="250" 
d="M36 500h77v-94q17 45 48 74t74 29h13v-84h-11q-39 0 -64.5 -11.5t-36.5 -34.5t-14.5 -45t-3.5 -55v-279h-82v500zM271 674l-101 -110h-65l-98 110h80l53 -63l58 63h73z" />
    <glyph glyph-name="Sacute" unicode="&#x15a;" horiz-adv-x="396" 
d="M357 498h-78v45q0 45 -15 72t-61 27q-74 0 -74 -85q0 -13 1.5 -24t6.5 -21.5t8.5 -17.5t12.5 -17.5t12 -14.5t15 -16t14 -15l111 -118q61 -65 61 -153q0 -97 -64 -140q-44 -30 -110 -30q-82 0 -126 44.5t-44 131.5v78h83v-65q0 -53 18 -83.5t69 -30.5q41 0 65 23.5
t24 64.5q0 27 -10 50.5t-20.5 36t-35.5 38.5l-95 98q-45 47 -63 83t-18 94q0 164 164 164q119 0 143 -92q6 -24 6 -82v-45zM313 871l-98 -107h-64l53 107h109z" />
    <glyph glyph-name="sacute" unicode="&#x15b;" horiz-adv-x="313" 
d="M94 173v-40q0 -77 62 -77q26 0 42 17t16 43q0 21 -8 37.5t-16 25t-28 25.5l-62 54q-37 33 -53 58t-16 65q0 58 31 93t97 35q124 0 124 -128v-28h-71v16q0 76 -53 76q-20 0 -36.5 -11.5t-16.5 -43.5q0 -8 2 -15.5t6.5 -15l7.5 -12.5t11 -12.5t11 -10.5t12.5 -10.5
t11.5 -9.5l57 -47q36 -30 53 -59t17 -67q0 -68 -38.5 -104t-105.5 -36q-77 0 -109 46q-15 22 -19.5 49.5t-5.5 86.5h77zM271 671l-98 -108h-64l53 108h109z" />
    <glyph glyph-name="Scircumflex" unicode="&#x15c;" horiz-adv-x="396" 
d="M357 498h-78v45q0 45 -15 72t-61 27q-74 0 -74 -85q0 -13 1.5 -24t6.5 -21.5t8.5 -17.5t12.5 -17.5t12 -14.5t15 -16t14 -15l111 -118q61 -65 61 -153q0 -97 -64 -140q-44 -30 -110 -30q-82 0 -126 44.5t-44 131.5v78h83v-65q0 -53 18 -83.5t69 -30.5q41 0 65 23.5
t24 64.5q0 27 -10 50.5t-20.5 36t-35.5 38.5l-95 98q-45 47 -63 83t-18 94q0 164 164 164q119 0 143 -92q6 -24 6 -82v-45zM338 764h-80l-53 60l-58 -60h-73l101 107h65z" />
    <glyph glyph-name="scircumflex" unicode="&#x15d;" horiz-adv-x="313" 
d="M94 173v-40q0 -77 62 -77q26 0 42 17t16 43q0 21 -8 37.5t-16 25t-28 25.5l-62 54q-37 33 -53 58t-16 65q0 58 31 93t97 35q124 0 124 -128v-28h-71v16q0 76 -53 76q-20 0 -36.5 -11.5t-16.5 -43.5q0 -8 2 -15.5t6.5 -15l7.5 -12.5t11 -12.5t11 -10.5t12.5 -10.5
t11.5 -9.5l57 -47q36 -30 53 -59t17 -67q0 -68 -38.5 -104t-105.5 -36q-77 0 -109 46q-15 22 -19.5 49.5t-5.5 86.5h77zM299 563h-78l-54 63l-57 -63h-76l101 110h66z" />
    <glyph glyph-name="Scedilla" unicode="&#x15e;" horiz-adv-x="396" 
d="M357 498h-78v45q0 45 -15 72t-61 27q-74 0 -74 -85q0 -13 1.5 -24t6.5 -21.5t8.5 -17.5t12.5 -17.5t12 -14.5t15 -16t14 -15l111 -118q61 -65 61 -153q0 -97 -64 -140q-44 -30 -106 -30l-20 -58q24 10 45 10q29 0 49 -17.5t20 -46.5q0 -30 -28 -59.5t-81 -29.5
q-35 0 -78 20l13 24q37 -14 55 -14q21 0 39.5 14t18.5 36q0 16 -11 27t-28 11q-13 0 -30 -13l-21 8l30 89q-147 13 -147 175v78h83v-65q0 -53 18 -83.5t69 -30.5q41 0 65 23.5t24 64.5q0 27 -10 50.5t-20.5 36t-35.5 38.5l-95 98q-45 47 -63 83t-18 94q0 164 164 164
q119 0 143 -92q6 -24 6 -82v-45z" />
    <glyph glyph-name="scedilla" unicode="&#x15f;" horiz-adv-x="313" 
d="M94 173v-40q0 -77 62 -77q26 0 42 17t16 43q0 21 -8 37.5t-16 25t-28 25.5l-62 54q-37 33 -53 58t-16 65q0 58 31 93t97 35q124 0 124 -128v-28h-71v16q0 76 -53 76q-20 0 -36.5 -11.5t-16.5 -43.5q0 -8 2 -15.5t6.5 -15l7.5 -12.5t11 -12.5t11 -10.5t12.5 -10.5
t11.5 -9.5l57 -47q36 -30 53 -59t17 -67q0 -68 -37.5 -103.5t-104.5 -36.5l-21 -59q24 10 45 10q29 0 49 -17.5t20 -46.5q0 -20 -13 -42q-31 -47 -96 -47q-35 0 -78 20l13 24q37 -14 55 -14q21 0 39.5 14t18.5 36q0 16 -11 27t-28 11q-13 0 -30 -13l-21 8l30 91
q-59 6 -83 44q-15 22 -19.5 49.5t-5.5 86.5h77z" />
    <glyph glyph-name="Scaron" unicode="&#x160;" horiz-adv-x="396" 
d="M357 498h-78v45q0 45 -15 72t-61 27q-74 0 -74 -85q0 -13 1.5 -24t6.5 -21.5t8.5 -17.5t12.5 -17.5t12 -14.5t15 -16t14 -15l111 -118q61 -65 61 -153q0 -97 -64 -140q-44 -30 -110 -30q-82 0 -126 44.5t-44 131.5v78h83v-65q0 -53 18 -83.5t69 -30.5q41 0 65 23.5
t24 64.5q0 27 -10 50.5t-20.5 36t-35.5 38.5l-95 98q-45 47 -63 83t-18 94q0 164 164 164q119 0 143 -92q6 -24 6 -82v-45zM330 871l-101 -107h-65l-99 107h79l53 -63l58 63h75z" />
    <glyph glyph-name="scaron" unicode="&#x161;" horiz-adv-x="313" 
d="M94 173v-40q0 -77 62 -77q26 0 42 17t16 43q0 21 -8 37.5t-16 25t-28 25.5l-62 54q-37 33 -53 58t-16 65q0 58 31 93t97 35q124 0 124 -128v-28h-71v16q0 76 -53 76q-20 0 -36.5 -11.5t-16.5 -43.5q0 -8 2 -15.5t6.5 -15l7.5 -12.5t11 -12.5t11 -10.5t12.5 -10.5
t11.5 -9.5l57 -47q36 -30 53 -59t17 -67q0 -68 -38.5 -104t-105.5 -36q-77 0 -109 46q-15 22 -19.5 49.5t-5.5 86.5h77zM289 674l-101 -110h-65l-98 110h80l53 -63l58 63h73z" />
    <glyph glyph-name="Tcommaaccent" unicode="&#x162;" 
d="M365 627h-134v-627h-87v627h-134v79h355v-79zM152 -30h71v-42q0 -35 -16.5 -54t-54.5 -25v26q30 8 30 34h-30v61z" />
    <glyph glyph-name="tcommaaccent" unicode="&#x163;" horiz-adv-x="229" 
d="M6 500h62v134h80v-134h74v-60h-74v-323q0 -27 9 -42.5t37 -15.5q14 0 28 4v-65q-21 -7 -45 -7q-70 0 -90.5 29t-20.5 96v324h-60v60zM100 -30h71v-42q0 -35 -16.5 -54t-54.5 -25v26q30 8 30 34h-30v61z" />
    <glyph glyph-name="Tcaron" unicode="&#x164;" 
d="M365 627h-134v-627h-87v627h-134v79h355v-79zM318 871l-101 -107h-65l-99 107h79l53 -63l58 63h75z" />
    <glyph glyph-name="tcaron" unicode="&#x165;" horiz-adv-x="229" 
d="M6 500h62v134h80v-134h74v-60h-74v-323q0 -27 9 -42.5t37 -15.5q14 0 28 4v-65q-21 -7 -45 -7q-70 0 -90.5 29t-20.5 96v324h-60v60zM181 706h78v-61q0 -53 -15 -80.5t-63 -36.5v35q24 6 31 21.5t7 42.5h-38v79z" />
    <glyph glyph-name="Tbar" unicode="&#x166;" 
d="M50 452v70h94v105h-134v79h355v-79h-134v-105h95v-70h-95v-452h-87v452h-94z" />
    <glyph glyph-name="tbar" unicode="&#x167;" horiz-adv-x="229" 
d="M203 293h-55v-176q0 -27 9 -42.5t37 -15.5q14 0 28 4v-65q-21 -7 -45 -7q-70 0 -90.5 29t-20.5 96v177h-52v60h52v87h-60v60h62v134h80v-134h74v-60h-74v-87h55v-60z" />
    <glyph glyph-name="Utilde" unicode="&#x168;" horiz-adv-x="437" 
d="M301 706h89v-476q0 -71 -3 -102t-14 -56q-35 -82 -154 -82q-120 0 -156 77q-10 23 -13 50t-3 107v482h89v-535q0 -51 18 -78t67 -27q42 0 61 21t19 78v541zM310 858h36q-9 -89 -75 -89q-21 0 -61 15.5t-53 15.5q-10 0 -16 -5t-8 -10t-4 -16h-36q0 44 28 70q21 20 48 20
q25 0 63 -15.5t51 -15.5q27 0 27 30z" />
    <glyph glyph-name="utilde" unicode="&#x169;" 
d="M331 0h-77v46q-43 -55 -107 -55q-38 0 -65 22q-25 21 -31.5 52.5t-6.5 96.5v338h80v-370q0 -46 19 -62.5t41 -16.5q24 0 39 11.5t20.5 32.5t7 35t1.5 35v335h79v-500zM272 660h36q0 -34 -17 -62.5t-53 -28.5q-20 0 -58.5 15.5t-51.5 15.5q-24 0 -26 -31h-36q0 40 20.5 66
t50.5 26q24 0 60.5 -15.5t49.5 -15.5q23 0 25 30z" />
    <glyph glyph-name="Umacron" unicode="&#x16a;" horiz-adv-x="437" 
d="M301 706h89v-476q0 -71 -3 -102t-14 -56q-35 -82 -154 -82q-120 0 -156 77q-10 23 -13 50t-3 107v482h89v-535q0 -51 18 -78t67 -27q42 0 61 21t19 78v541zM330 773h-223v64h223v-64z" />
    <glyph glyph-name="umacron" unicode="&#x16b;" 
d="M331 0h-77v46q-43 -55 -107 -55q-38 0 -65 22q-25 21 -31.5 52.5t-6.5 96.5v338h80v-370q0 -46 19 -62.5t41 -16.5q24 0 39 11.5t20.5 32.5t7 35t1.5 35v335h79v-500zM296 575h-217v64h217v-64z" />
    <glyph glyph-name="Ubreve" unicode="&#x16c;" horiz-adv-x="437" 
d="M301 706h89v-476q0 -71 -3 -102t-14 -56q-35 -82 -154 -82q-120 0 -156 77q-10 23 -13 50t-3 107v482h89v-535q0 -51 18 -78t67 -27q42 0 61 21t19 78v541zM271 871h48q0 -56 -29 -85.5t-70 -29.5q-43 0 -72.5 27t-29.5 88h48q0 -10 2 -20.5t14.5 -24t35.5 -13.5
q22 0 35 13t15.5 24t2.5 21z" />
    <glyph glyph-name="ubreve" unicode="&#x16d;" 
d="M331 0h-77v46q-43 -55 -107 -55q-38 0 -65 22q-25 21 -31.5 52.5t-6.5 96.5v338h80v-370q0 -46 19 -62.5t41 -16.5q24 0 39 11.5t20.5 32.5t7 35t1.5 35v335h79v-500zM240 671h48q0 -56 -29 -85.5t-70 -29.5q-43 0 -72.5 27t-29.5 88h48q0 -10 2 -20.5t14.5 -24
t35.5 -13.5q22 0 35 13t15.5 24t2.5 21z" />
    <glyph glyph-name="Uring" unicode="&#x16e;" horiz-adv-x="437" 
d="M301 706h89v-476q0 -71 -3 -102t-14 -56q-35 -82 -154 -82q-120 0 -156 77q-10 23 -13 50t-3 107v482h89v-535q0 -51 18 -78t67 -27q42 0 61 21t19 78v541zM299 828q0 -33 -23.5 -56.5t-57.5 -23.5q-33 0 -56.5 23.5t-23.5 56.5t24 56.5t57 23.5t56.5 -23.5t23.5 -56.5z
M255 829q0 15 -10.5 25.5t-26.5 10.5q-14 0 -25 -10t-11 -25t11 -26.5t26 -11.5t25.5 10.5t10.5 26.5z" />
    <glyph glyph-name="uring" unicode="&#x16f;" 
d="M331 0h-77v46q-43 -55 -107 -55q-38 0 -65 22q-25 21 -31.5 52.5t-6.5 96.5v338h80v-370q0 -46 19 -62.5t41 -16.5q24 0 39 11.5t20.5 32.5t7 35t1.5 35v335h79v-500zM268 628q0 -32 -24 -56t-57 -24t-56.5 23.5t-23.5 56.5q0 34 23.5 57.5t56.5 23.5q37 0 59 -25t22 -56
zM224 629q0 15 -10.5 26t-25.5 11q-16 0 -26.5 -11.5t-10.5 -25.5q0 -15 11 -25.5t26 -10.5t25.5 10.5t10.5 25.5z" />
    <glyph glyph-name="Uhungarumlaut" unicode="&#x170;" horiz-adv-x="437" 
d="M301 706h89v-476q0 -71 -3 -102t-14 -56q-35 -82 -154 -82q-120 0 -156 77q-10 23 -13 50t-3 107v482h89v-535q0 -51 18 -78t67 -27q42 0 61 21t19 78v541zM278 871l-94 -107h-57l53 107h98zM410 871l-94 -107h-57l53 107h98z" />
    <glyph glyph-name="uhungarumlaut" unicode="&#x171;" 
d="M331 0h-77v46q-43 -55 -107 -55q-38 0 -65 22q-25 21 -31.5 52.5t-6.5 96.5v338h80v-370q0 -46 19 -62.5t41 -16.5q24 0 39 11.5t20.5 32.5t7 35t1.5 35v335h79v-500zM243 671l-94 -108h-57l53 108h98zM375 671l-94 -108h-57l53 108h98z" />
    <glyph glyph-name="Uogonek" unicode="&#x172;" horiz-adv-x="437" 
d="M301 706h89v-476q0 -71 -3 -102t-14 -56q-5 -11 -11 -20.5t-13 -16.5t-12.5 -12t-14 -9t-12.5 -6t-12 -5t-9 -4q-37 -14 -53 -35.5t-16 -37.5q0 -27 33 -27q5 0 14 0.5t11 0.5v-61h-37q-91 0 -91 57q0 39 41 95q-97 8 -128 76q-10 23 -13 50t-3 107v482h89v-535
q0 -51 18 -78t67 -27q42 0 61 21t19 78v541z" />
    <glyph glyph-name="uogonek" unicode="&#x173;" 
d="M331 500v-500q-49 -46 -49 -74q0 -27 33 -27q5 0 14 0.5t11 0.5v-61h-37q-91 0 -91 57q0 26 11 47.5t37 56.5h-6v46q-43 -55 -107 -55q-38 0 -65 22q-25 21 -31.5 52.5t-6.5 96.5v338h80v-370q0 -46 19 -62.5t41 -16.5q24 0 39 11.5t20.5 32.5t7 35t1.5 35v335h79z" />
    <glyph glyph-name="Wcircumflex" unicode="&#x174;" horiz-adv-x="625" 
d="M625 706l-119 -706h-116l-77 585l-80 -585h-118l-115 706h87l87 -619l83 619h113l81 -619l88 619h86zM446 764h-80l-53 60l-58 -60h-73l101 107h65z" />
    <glyph glyph-name="wcircumflex" unicode="&#x175;" horiz-adv-x="521" 
d="M521 500l-98 -500h-96l-68 421l-69 -421h-98l-92 500h87l53 -428l65 428h108l65 -422l59 422h84zM400 563h-78l-54 63l-57 -63h-76l101 110h66z" />
    <glyph glyph-name="Ycircumflex" unicode="&#x176;" horiz-adv-x="396" 
d="M396 706l-155 -428v-278h-91v278l-150 428h93l105 -353l105 353h93zM340 764h-80l-53 60l-58 -60h-73l101 107h65z" />
    <glyph glyph-name="ycircumflex" unicode="&#x177;" horiz-adv-x="333" 
d="M235 500h85l-98 -498q-6 -33 -10.5 -50t-16 -43t-28.5 -42q-30 -30 -95 -30h-52v69q10 -1 30 -1q16 0 25.5 1t24 6t22 18t7.5 34q0 17 -10 61l-113 475h86l79 -402zM309 563h-78l-54 63l-57 -63h-76l101 110h66z" />
    <glyph glyph-name="Ydieresis" unicode="&#x178;" horiz-adv-x="396" 
d="M396 706l-155 -428v-278h-91v278l-150 428h93l105 -353l105 353h93zM330 764h-83v107h83v-107zM152 764h-83v107h83v-107z" />
    <glyph glyph-name="Zacute" unicode="&#x179;" 
d="M353 0h-331v72l232 555h-199v79h298v-67l-236 -561h236v-78zM323 871l-98 -107h-64l53 107h109z" />
    <glyph glyph-name="zacute" unicode="&#x17a;" horiz-adv-x="292" 
d="M281 0h-272v66l188 366h-163v68h247v-68l-187 -366h187v-66zM281 671l-98 -108h-64l53 108h109z" />
    <glyph glyph-name="Zdotaccent" unicode="&#x17b;" 
d="M353 0h-331v72l232 555h-199v79h298v-67l-236 -561h236v-78zM246 764h-80v107h80v-107z" />
    <glyph glyph-name="zdotaccent" unicode="&#x17c;" horiz-adv-x="292" 
d="M281 0h-272v66l188 366h-163v68h247v-68l-187 -366h187v-66zM195 563h-77v103h77v-103z" />
    <glyph glyph-name="Zcaron" unicode="&#x17d;" 
d="M353 0h-331v72l232 555h-199v79h298v-67l-236 -561h236v-78zM320 871l-101 -107h-65l-99 107h79l53 -63l58 63h75z" />
    <glyph glyph-name="zcaron" unicode="&#x17e;" horiz-adv-x="292" 
d="M281 0h-272v66l188 366h-163v68h247v-68l-187 -366h187v-66zM284 674l-101 -110h-65l-98 110h80l53 -63l58 63h73z" />
    <glyph glyph-name="longs" unicode="&#x17f;" horiz-adv-x="203" 
d="M64 500v77q0 26 3.5 45t14.5 41t36.5 34t63.5 12q26 0 42 -6v-69q-21 6 -32 6q-18 0 -28.5 -7t-14.5 -22.5t-5 -27t-1 -33.5v-550h-79v440h-59v60h59z" />
    <glyph glyph-name="florin" unicode="&#x192;" horiz-adv-x="271" 
d="M267 714l-7 -70q-2 1 -8 1q-24 0 -36.5 -10.5t-15.5 -23t-6 -38.5l-8 -73h71l-8 -60h-69l-43 -418q-4 -37 -6.5 -56t-10.5 -44t-20 -36t-33.5 -19.5t-51.5 -8.5q-20 0 -43 5l7 68q20 -3 27 -3q16 0 26.5 6.5t16 23t7.5 29t4 39.5l42 414h-61l7 60h61l11 113q2 22 5 33.5
t12.5 31t31.5 29.5t56 10q12 0 42 -3z" />
    <glyph glyph-name="Aringacute" unicode="&#x1fa;" horiz-adv-x="396" 
d="M312 998l-118 -109h-64l73 109h109zM396 0h-92l-25 136h-164l-24 -136h-91l152 706h88zM264 212l-69 363l-65 -363h134zM261 809q0 -27 -18.5 -45t-44.5 -18q-25 0 -43.5 18t-18.5 45t18.5 45t44.5 18t44 -18t18 -45zM223 810q0 11 -7 18t-18 7q-10 0 -17 -7.5t-7 -17.5
q0 -11 7 -18.5t18 -7.5q10 0 17 7.5t7 18.5z" />
    <glyph glyph-name="aringacute" unicode="&#x1fb;" horiz-adv-x="354" 
d="M283 810l-112 -107h-60l66 107h106zM109 336h-71v29q0 26 1 39t7 31t18 33q35 41 113 41q65 0 100 -35q32 -32 32 -102v-266q0 -52 4 -73.5t20 -32.5h-98v60q-33 -69 -104 -69q-33 0 -60 16q-52 31 -52 114q0 46 18 77t42.5 47t70 47t80.5 66v17q0 70 -61 70
q-60 0 -60 -63v-46zM230 162v123q-17 -18 -55 -44t-56 -51.5t-18 -67.5q0 -72 54 -72q33 0 56 29q19 25 19 83zM243 616q0 -27 -20.5 -47.5t-48.5 -20.5t-47.5 20t-19.5 48q0 29 19.5 49t47.5 20q32 0 50.5 -20.5t18.5 -48.5zM202 617q0 12 -8 20.5t-19 8.5q-12 0 -20 -9
t-8 -20t8.5 -19.5t19.5 -8.5t19 8.5t8 19.5z" />
    <glyph glyph-name="AEacute" unicode="&#x1fc;" horiz-adv-x="625" 
d="M605 0h-308v155h-153l-52 -155h-92l249 706h343v-79h-208v-210h178v-80h-178v-258h221v-79zM297 231v386l-127 -386h127zM508 871l-98 -107h-64l53 107h109z" />
    <glyph glyph-name="aeacute" unicode="&#x1fd;" horiz-adv-x="542" 
d="M505 162v-21q0 -150 -140 -150q-66 0 -109 47q-28 -26 -49.5 -36.5t-55.5 -10.5q-39 0 -65 14.5t-36.5 38t-13.5 39.5t-3 32q0 66 31 102q12 14 33.5 30t62 44t76.5 56v35q0 63 -56 63q-20 0 -32.5 -8.5t-17.5 -24t-6.5 -27t-1.5 -29.5v-19h-73v33q0 28 4 49t16 43
t39 34.5t67 12.5q59 0 99 -33q43 33 97 33q45 0 78 -21q25 -16 38 -42t15.5 -46.5t2.5 -55.5v-108h-195v-111q0 -40 18 -56.5t43 -16.5q20 0 33 9t18 27t6 29.5t1 31.5v13h76zM430 301v60q0 86 -62 86q-58 0 -58 -85v-61h120zM236 150v120q-13 -11 -41 -30t-43 -31.5
t-28.5 -35.5t-13.5 -50q0 -29 15 -48.5t43 -19.5q68 0 68 95zM408 671l-98 -108h-64l53 108h109z" />
    <glyph glyph-name="Oslashacute" unicode="&#x1fe;" horiz-adv-x="437" 
d="M395 496v-200q0 -173 -36.5 -239.5t-145.5 -66.5q-95 0 -135 56l-23 -46l-36 21l37 76q-12 46 -12 155v235q0 121 40 172q46 58 143 58q77 0 119 -40l20 38l36 -19l-28 -57q21 -49 21 -143zM305 269v235l-170 -341q1 -29 8 -49q17 -52 75 -52q55 0 70 41.5t17 165.5z
M135 252l165 330q-15 61 -78 61q-50 0 -68.5 -34.5t-18.5 -113.5v-243zM338 871l-98 -107h-64l53 107h109z" />
    <glyph glyph-name="oslashacute" unicode="&#x1ff;" horiz-adv-x="354" 
d="M300 511l28 -22l-28 -45q18 -37 18 -120v-120q0 -30 -0.5 -46.5t-3 -42.5t-8 -40.5t-16 -33t-25.5 -28t-38 -16t-53 -6.5q-72 0 -108 41l-21 -42l-31 22l31 57q-10 32 -10 99v146q0 100 29.5 147.5t115.5 47.5q62 0 98 -33zM234 206v119l-114 -198q2 -39 14 -56.5
t40 -17.5q40 0 50 32.5t10 120.5zM119 330v-133l112 196q-6 50 -53 50q-36 0 -47.5 -26.5t-11.5 -86.5zM291 671l-98 -108h-64l53 108h109z" />
    <glyph glyph-name="Scommaaccent" unicode="&#x218;" horiz-adv-x="396" 
d="M357 498h-78v45q0 45 -15 72t-61 27q-74 0 -74 -85q0 -13 1.5 -24t6.5 -21.5t8.5 -17.5t12.5 -17.5t12 -14.5t15 -16t14 -15l111 -118q61 -65 61 -153q0 -97 -64 -140q-44 -30 -110 -30q-82 0 -126 44.5t-44 131.5v78h83v-65q0 -53 18 -83.5t69 -30.5q41 0 65 23.5
t24 64.5q0 27 -10 50.5t-20.5 36t-35.5 38.5l-95 98q-45 47 -63 83t-18 94q0 164 164 164q119 0 143 -92q6 -24 6 -82v-45zM163 -30h71v-42q0 -35 -16.5 -54t-54.5 -25v26q30 8 30 34h-30v61z" />
    <glyph glyph-name="scommaaccent" unicode="&#x219;" horiz-adv-x="313" 
d="M94 173v-40q0 -77 62 -77q26 0 42 17t16 43q0 21 -8 37.5t-16 25t-28 25.5l-62 54q-37 33 -53 58t-16 65q0 58 31 93t97 35q124 0 124 -128v-28h-71v16q0 76 -53 76q-20 0 -36.5 -11.5t-16.5 -43.5q0 -8 2 -15.5t6.5 -15l7.5 -12.5t11 -12.5t11 -10.5t12.5 -10.5
t11.5 -9.5l57 -47q36 -30 53 -59t17 -67q0 -68 -38.5 -104t-105.5 -36q-77 0 -109 46q-15 22 -19.5 49.5t-5.5 86.5h77zM121 -30h71v-42q0 -35 -16.5 -54t-54.5 -25v26q30 8 30 34h-30v61z" />
    <glyph glyph-name="uni021A" unicode="&#x21a;" 
d="M365 627h-134v-627h-87v627h-134v79h355v-79zM152 -30h71v-42q0 -35 -16.5 -54t-54.5 -25v26q30 8 30 34h-30v61z" />
    <glyph glyph-name="uni021B" unicode="&#x21b;" horiz-adv-x="229" 
d="M6 500h62v134h80v-134h74v-60h-74v-323q0 -27 9 -42.5t37 -15.5q14 0 28 4v-65q-21 -7 -45 -7q-70 0 -90.5 29t-20.5 96v324h-60v60zM100 -30h71v-42q0 -35 -16.5 -54t-54.5 -25v26q30 8 30 34h-30v61z" />
    <glyph glyph-name="circumflex" unicode="&#x2c6;" horiz-adv-x="229" 
d="M247 563h-78l-54 63l-57 -63h-76l101 110h66z" />
    <glyph glyph-name="caron" unicode="&#x2c7;" horiz-adv-x="229" 
d="M247 674l-101 -110h-65l-98 110h80l53 -63l58 63h73z" />
    <glyph glyph-name="uni02C9" unicode="&#x2c9;" horiz-adv-x="229" 
d="M223 575h-217v64h217v-64z" />
    <glyph glyph-name="breve" unicode="&#x2d8;" horiz-adv-x="229" 
d="M167 671h48q0 -56 -29 -85.5t-70 -29.5q-43 0 -72.5 27t-29.5 88h48q0 -10 2 -20.5t14.5 -24t35.5 -13.5q22 0 35 13t15.5 24t2.5 21z" />
    <glyph glyph-name="dotaccent" unicode="&#x2d9;" horiz-adv-x="229" 
d="M153 563h-77v103h77v-103z" />
    <glyph glyph-name="ring" unicode="&#x2da;" horiz-adv-x="229" 
d="M195 628q0 -32 -23.5 -56t-57.5 -24q-33 0 -56.5 23.5t-23.5 56.5q0 34 23.5 57.5t56.5 23.5q37 0 59 -25t22 -56zM151 629q0 15 -10.5 26t-25.5 11q-16 0 -26.5 -11.5t-10.5 -25.5q0 -15 11 -25.5t26 -10.5t25.5 10.5t10.5 25.5z" />
    <glyph glyph-name="ogonek" unicode="&#x2db;" horiz-adv-x="229" 
d="M98 0h67q-45 -52 -45 -74q0 -27 33 -27q5 0 14 0.5t11 0.5v-61h-37q-91 0 -91 57q0 26 11 47.5t37 56.5z" />
    <glyph glyph-name="tilde" unicode="&#x2dc;" horiz-adv-x="229" 
d="M200 660h36q0 -34 -17 -62.5t-53 -28.5q-20 0 -58.5 15.5t-51.5 15.5q-24 0 -26 -31h-36q0 40 20.5 66t50.5 26q24 0 60.5 -15.5t49.5 -15.5q23 0 25 30z" />
    <glyph glyph-name="hungarumlaut" unicode="&#x2dd;" horiz-adv-x="229" 
d="M124 671l-94 -108h-57l53 108h98zM256 671l-94 -108h-57l53 108h98z" />
    <glyph glyph-name="uni037E" unicode="&#x37e;" horiz-adv-x="208" 
d="M168 364h-86v113h86v-113zM82 118h85v-122q0 -57 -17.5 -90t-67.5 -43v52q38 9 38 70v15h-38v118z" />
    <glyph glyph-name="tonos" unicode="&#x384;" horiz-adv-x="229" 
d="M195 671l-98 -108h-64l53 108h109z" />
    <glyph glyph-name="dieresistonos" unicode="&#x385;" horiz-adv-x="295" 
d="M294 563h-78v103h78v-103zM79 563h-78v103h78v-103zM219 702l-72 -139h-54l32 139h94z" />
    <glyph glyph-name="Alphatonos" unicode="&#x386;" horiz-adv-x="396" 
d="M396 0h-92l-25 136h-164l-24 -136h-91l152 706h88zM264 212l-69 363l-65 -363h134zM84 706l-98 -108h-64l53 108h109z" />
    <glyph glyph-name="anoteleia" unicode="&#x387;" horiz-adv-x="167" 
d="M126 209h-85v118h85v-118z" />
    <glyph glyph-name="Epsilontonos" unicode="&#x388;" horiz-adv-x="396" 
d="M368 0h-318v706h311v-79h-223v-210h195v-80h-195v-258h230v-79zM1 706l-98 -108h-64l53 108h109z" />
    <glyph glyph-name="Etatonos" unicode="&#x389;" horiz-adv-x="437" 
d="M387 0h-88v329h-161v-329h-88v706h88v-300h161v300h88v-706zM1 706l-98 -108h-64l53 108h109z" />
    <glyph glyph-name="Iotatonos" unicode="&#x38a;" horiz-adv-x="187" 
d="M137 0h-87v706h87v-706zM1 706l-98 -108h-64l53 108h109z" />
    <glyph glyph-name="Omicrontonos" unicode="&#x38c;" horiz-adv-x="437" 
d="M393 496v-200q0 -174 -35.5 -240t-144.5 -66q-47 0 -79 13.5t-49.5 33t-27 57t-11.5 70.5t-2 88v235q0 121 40 172q46 58 143 58q95 0 130.5 -54.5t35.5 -166.5zM134 492v-275q0 -75 9 -103q17 -51 75 -51q53 0 69 41.5t16 155.5v232q0 31 -0.5 46.5t-4.5 39.5
t-12.5 35.5t-24.5 20.5t-40 9q-51 0 -69 -36t-18 -115zM35 706l-98 -108h-64l53 108h109z" />
    <glyph glyph-name="Upsilontonos" unicode="&#x38e;" horiz-adv-x="396" 
d="M396 706l-155 -428v-278h-91v278l-150 428h93l105 -353l105 353h93zM-29 706l-98 -108h-64l53 108h109z" />
    <glyph glyph-name="Omegatonos" unicode="&#x38f;" horiz-adv-x="453" 
d="M311 317v175q0 31 -0.5 46.5t-4.5 39.5t-12.5 35.5t-24.5 20.5t-40 9q-51 0 -69 -36t-18 -115v-175q0 -115 13 -158.5t49 -71.5v-87h-157v79h92q-25 7 -42 26t-25.5 39.5t-13.5 54t-5.5 54.5t-0.5 56v178q0 121 40 172q46 58 143 58q95 0 130.5 -54.5t35.5 -166.5v-187
q0 -35 -0.5 -56t-5.5 -54.5t-13.5 -54t-25.5 -39.5t-42 -26h92v-79h-157v87q36 28 49 71.5t13 158.5zM43 706l-98 -108h-64l53 108h109z" />
    <glyph glyph-name="iotadieresistonos" unicode="&#x390;" horiz-adv-x="175" 
d="M44 106v394h79v-390q0 -33 6.5 -41.5t27.5 -8.5h6v-60q-9 -1 -21 -1q-33 0 -53.5 8t-29.5 25t-12 33t-3 41zM244 563h-78v103h78v-103zM29 563h-78v103h78v-103zM169 702l-72 -139h-54l32 139h94z" />
    <glyph glyph-name="Alpha" unicode="&#x391;" horiz-adv-x="396" 
d="M396 0h-92l-25 136h-164l-24 -136h-91l152 706h88zM264 212l-69 363l-65 -363h134z" />
    <glyph glyph-name="Beta" unicode="&#x392;" horiz-adv-x="437" 
d="M50 706h175q50 0 84.5 -14.5t51.5 -39.5t23.5 -49.5t6.5 -52.5q0 -169 -113 -169q19 0 36.5 -5.5t39.5 -20.5t35 -50.5t13 -87.5q0 -69 -10 -106t-34 -62q-27 -29 -62.5 -39t-114.5 -10h-131v706zM138 627v-211h61q20 0 33.5 1.5t28.5 7.5t23.5 17t14.5 31t6 49
q0 36 -8 58.5t-24.5 32t-31 12t-37.5 2.5h-66zM138 340v-264h70q59 0 83 26t24 97q0 80 -22.5 110.5t-91.5 30.5h-63z" />
    <glyph glyph-name="Gamma" unicode="&#x393;" horiz-adv-x="355" 
d="M347 627h-208v-627h-89v706h297v-79z" />
    <glyph glyph-name="uni0394" unicode="&#x394;" horiz-adv-x="445" 
d="M442 0h-439l173 706h97zM333 78l-110 516l-110 -516h220z" />
    <glyph glyph-name="Epsilon" unicode="&#x395;" horiz-adv-x="396" 
d="M368 0h-318v706h311v-79h-223v-210h195v-80h-195v-258h230v-79z" />
    <glyph glyph-name="Zeta" unicode="&#x396;" 
d="M353 0h-331v72l232 555h-199v79h298v-67l-236 -561h236v-78z" />
    <glyph glyph-name="Eta" unicode="&#x397;" horiz-adv-x="437" 
d="M387 0h-88v329h-161v-329h-88v706h88v-300h161v300h88v-706z" />
    <glyph glyph-name="Theta" unicode="&#x398;" horiz-adv-x="437" 
d="M154 337v80h129v-80h-129zM393 496v-200q0 -174 -35.5 -240t-144.5 -66q-47 0 -79 13.5t-49.5 33t-27 57t-11.5 70.5t-2 88v235q0 121 40 172q46 58 143 58q95 0 130.5 -54.5t35.5 -166.5zM134 492v-275q0 -75 9 -103q17 -51 75 -51q53 0 69 41.5t16 155.5v232
q0 31 -0.5 46.5t-4.5 39.5t-12.5 35.5t-24.5 20.5t-40 9q-51 0 -69 -36t-18 -115z" />
    <glyph glyph-name="Iota" unicode="&#x399;" horiz-adv-x="187" 
d="M137 0h-87v706h87v-706z" />
    <glyph glyph-name="Kappa" unicode="&#x39a;" horiz-adv-x="417" 
d="M417 0h-98l-125 361l-57 -85v-276h-87v706h87v-304l182 304h98l-167 -266z" />
    <glyph glyph-name="Lambda" unicode="&#x39b;" horiz-adv-x="376" 
d="M185 563l-94 -563h-91l142 706h88l146 -706h-92z" />
    <glyph glyph-name="Mu" unicode="&#x39c;" horiz-adv-x="562" 
d="M512 0h-81l12 639l-105 -639h-111l-105 639q12 -581 14 -639h-86v706h132l99 -630l97 630h134v-706z" />
    <glyph glyph-name="Nu" unicode="&#x39d;" horiz-adv-x="437" 
d="M387 0h-124l-138 612q8 -419 12 -612h-87v706h121l143 -618q-10 525 -12 618h85v-706z" />
    <glyph glyph-name="Xi" unicode="&#x39e;" horiz-adv-x="397" 
d="M68 332v90h261v-90h-261zM28 0v89h341v-89h-341zM362 617h-327v89h327v-89z" />
    <glyph glyph-name="Omicron" unicode="&#x39f;" horiz-adv-x="437" 
d="M393 496v-200q0 -174 -35.5 -240t-144.5 -66q-47 0 -79 13.5t-49.5 33t-27 57t-11.5 70.5t-2 88v235q0 121 40 172q46 58 143 58q95 0 130.5 -54.5t35.5 -166.5zM134 492v-275q0 -75 9 -103q17 -51 75 -51q53 0 69 41.5t16 155.5v232q0 31 -0.5 46.5t-4.5 39.5
t-12.5 35.5t-24.5 20.5t-40 9q-51 0 -69 -36t-18 -115z" />
    <glyph glyph-name="Pi" unicode="&#x3a0;" horiz-adv-x="427" 
d="M377 0h-88v625h-151v-625h-88v706h327v-706z" />
    <glyph glyph-name="Rho" unicode="&#x3a1;" horiz-adv-x="417" 
d="M50 706h183q81 0 119 -47q24 -30 30.5 -65.5t6.5 -99.5q0 -115 -37 -160q-36 -44 -140 -44h-74v-290h-88v706zM138 626v-259h75q33 0 51.5 7.5t27 28t10 39.5t1.5 60q0 77 -21.5 100.5t-97.5 23.5h-46z" />
    <glyph glyph-name="Sigma" unicode="&#x3a3;" 
d="M153 372l-119 267v67h312v-79h-213l113 -253l-129 -295h236v-79h-331v72z" />
    <glyph glyph-name="Tau" unicode="&#x3a4;" 
d="M365 627h-134v-627h-87v627h-134v79h355v-79z" />
    <glyph glyph-name="Upsilon" unicode="&#x3a5;" horiz-adv-x="396" 
d="M396 706l-155 -428v-278h-91v278l-150 428h93l105 -353l105 353h93z" />
    <glyph glyph-name="Phi" unicode="&#x3a6;" horiz-adv-x="487" 
d="M287 50v-50h-87v50q-166 10 -166 182v241q0 46 14.5 83t53.5 66t98 33v51h87v-51q59 -4 98 -33t53.5 -66t14.5 -83v-241q0 -172 -166 -182zM124 463v-217q0 -113 76 -123v458q-76 -9 -76 -118zM363 246v217q0 109 -76 118v-458q76 10 76 123z" />
    <glyph glyph-name="Chi" unicode="&#x3a7;" horiz-adv-x="396" 
d="M396 0h-95l-108 306l-101 -306h-92l135 385l-126 321h97l85 -271l79 271h94l-116 -321z" />
    <glyph glyph-name="Psi" unicode="&#x3a8;" horiz-adv-x="507" 
d="M374 353v353h89v-357q0 -172 -166 -182v-167h-87v167q-166 10 -166 182v357h89v-353q0 -110 77 -113v466h87v-466q77 3 77 113z" />
    <glyph glyph-name="uni03A9" unicode="&#x3a9;" horiz-adv-x="480" 
d="M429 0h-166v71q33 29 47 83.5t14 173.5v195q0 65 -16 93.5t-67 28.5q-48 0 -68 -29q-11 -17 -13.5 -32.5t-2.5 -62.5v-193q0 -119 13 -172.5t48 -84.5v-71h-167v70h102q-21 16 -30 28t-20 36q-34 78 -34 210v180q0 57 7.5 87.5t27.5 53.5q45 51 137 51q93 0 135 -49
q22 -25 29 -53t7 -90v-179q0 -222 -85 -275h102v-70z" />
    <glyph glyph-name="Iotadieresis" unicode="&#x3aa;" horiz-adv-x="187" 
d="M137 0h-87v706h87v-706zM225 764h-83v107h83v-107zM47 764h-83v107h83v-107z" />
    <glyph glyph-name="Upsilondieresis" unicode="&#x3ab;" horiz-adv-x="396" 
d="M396 706l-155 -428v-278h-91v278l-150 428h93l105 -353l105 353h93zM330 764h-83v107h83v-107zM152 764h-83v107h83v-107z" />
    <glyph glyph-name="alphatonos" unicode="&#x3ac;" horiz-adv-x="379" 
d="M119 347v-182q0 -21 1.5 -36t6.5 -34.5t18.5 -30t34.5 -10.5q25 0 40.5 11.5t22 34t8 39.5t1.5 43v139q0 21 -0.5 32.5t-4.5 31.5t-11 31t-21.5 20t-35.5 9q-60 0 -60 -98zM255 52q-38 -61 -100 -61q-32 0 -54.5 12.5t-35 30t-19.5 46t-8.5 52.5t-1.5 57v154
q0 77 31 121.5t88 44.5q61 0 99 -62v53h77v-390q0 -33 6 -41.5t26 -8.5h4v-60q-9 -1 -17 -1q-80 0 -95 53zM300 671l-98 -108h-64l53 108h109z" />
    <glyph glyph-name="epsilontonos" unicode="&#x3ad;" horiz-adv-x="340" 
d="M217 298v-61q-68 -2 -87.5 -17t-19.5 -65v-23q0 -76 64 -76q38 0 50.5 24t12.5 67v45h75v-51q0 -151 -136 -151q-63 0 -104.5 32.5t-41.5 110.5v32q0 92 81 106q-29 4 -49 27.5t-20 60.5v28q0 121 137 121q133 0 133 -134v-30h-75v34q0 69 -59 69q-56 0 -56 -53v-36
q0 -33 19 -46.5t76 -13.5zM289 671l-98 -108h-64l53 108h109z" />
    <glyph glyph-name="etatonos" unicode="&#x3ae;" horiz-adv-x="382" 
d="M127 454q40 55 108 55q60 0 86 -43q11 -18 14 -41t3 -73v-511h-81v525q0 80 -59 80q-67 0 -67 -97v-349h-80v395q0 28 -4.5 34.5t-22.5 6.5h-4v69q16 4 37 4q58 0 70 -55zM305 671l-98 -108h-64l53 108h109z" />
    <glyph glyph-name="iotatonos" unicode="&#x3af;" horiz-adv-x="175" 
d="M44 106v394h79v-390q0 -33 6.5 -41.5t27.5 -8.5h6v-60q-9 -1 -21 -1q-33 0 -53.5 8t-29.5 25t-12 33t-3 41zM200 671l-98 -108h-64l53 108h109z" />
    <glyph glyph-name="upsilondieresistonos" unicode="&#x3b0;" 
d="M331 500v-315q0 -37 -1.5 -58t-9 -50.5t-22 -45.5t-43.5 -28t-70 -12q-141 0 -141 151v358h80v-317q0 -75 12 -102.5t53 -27.5q40 0 51.5 27t11.5 102v318h79zM335 563h-78v103h78v-103zM120 563h-78v103h78v-103zM260 702l-72 -139h-54l32 139h94z" />
    <glyph glyph-name="alpha" unicode="&#x3b1;" horiz-adv-x="379" 
d="M119 347v-182q0 -21 1.5 -36t6.5 -34.5t18.5 -30t34.5 -10.5q25 0 40.5 11.5t22 34t8 39.5t1.5 43v139q0 21 -0.5 32.5t-4.5 31.5t-11 31t-21.5 20t-35.5 9q-60 0 -60 -98zM255 52q-38 -61 -100 -61q-32 0 -54.5 12.5t-35 30t-19.5 46t-8.5 52.5t-1.5 57v154
q0 77 31 121.5t88 44.5q61 0 99 -62v53h77v-390q0 -33 6 -41.5t26 -8.5h4v-60q-9 -1 -17 -1q-80 0 -95 53z" />
    <glyph glyph-name="beta" unicode="&#x3b2;" 
d="M339 239v-36q0 -37 -1.5 -61t-8 -56t-18.5 -50t-35 -31.5t-56 -13.5q-62 0 -94 51v-201h-82v718q0 24 1.5 41t9.5 39.5t21.5 36t40 23.5t63.5 10q38 0 66 -11t41.5 -25.5t21 -37t9 -37t1.5 -33.5v-44q0 -31 -7 -52.5t-21.5 -32.5t-24.5 -15t-28 -9q62 -15 81 -49t20 -124
zM255 161v46q0 105 -12 135.5t-58 30.5q-9 0 -16 -1v72h11q35 0 47 14t12 62v43q0 17 -1.5 28.5t-7 24.5t-18 19.5t-31.5 6.5q-36 0 -45 -20t-9 -61v-407q0 -44 16 -73.5t51 -29.5q21 0 34.5 10.5t18.5 30.5t6.5 34t1.5 35z" />
    <glyph glyph-name="gamma" unicode="&#x3b3;" horiz-adv-x="320" 
d="M115 -159v168l-87 400q-3 15 -6.5 19t-12.5 4h-9v68h42q29 0 42.5 -13.5t20.5 -51.5l52 -321l76 386h86l-122 -496v-163h-82z" />
    <glyph glyph-name="delta" unicode="&#x3b4;" horiz-adv-x="354" 
d="M318 307v-115q0 -32 -1 -49t-4.5 -45t-12.5 -43.5t-24 -32t-40.5 -24t-60.5 -7.5q-139 0 -139 158v129q0 41 3.5 69t13.5 54.5t30.5 42t51.5 22.5q-80 46 -80 125q0 52 30 85t95 33q60 0 91.5 -30t31.5 -98v-29h-71v17q0 38 -11.5 57t-40.5 19q-50 0 -50 -55
q0 -29 22.5 -54.5t68.5 -55.5t48 -32q31 -25 40 -56t9 -85zM235 211v106q0 25 -2 41t-15.5 32.5t-38.5 16.5q-36 0 -47.5 -26.5t-11.5 -86.5v-104q0 -80 9 -108.5t46 -28.5q14 0 24.5 4.5t17 15.5t10.5 22t5.5 32.5t2 37.5t0.5 46z" />
    <glyph glyph-name="epsilon" unicode="&#x3b5;" horiz-adv-x="340" 
d="M217 298v-61q-68 -2 -87.5 -17t-19.5 -65v-23q0 -76 64 -76q38 0 50.5 24t12.5 67v45h75v-51q0 -151 -136 -151q-63 0 -104.5 32.5t-41.5 110.5v32q0 92 81 106q-29 4 -49 27.5t-20 60.5v28q0 121 137 121q133 0 133 -134v-30h-75v34q0 69 -59 69q-56 0 -56 -53v-36
q0 -33 19 -46.5t76 -13.5z" />
    <glyph glyph-name="zeta" unicode="&#x3b6;" horiz-adv-x="299" 
d="M106 174v-47q0 -61 78 -61q71 0 91 -24.5t20 -78.5v-85h-77v83q0 23 -11 31t-40 8q-61 0 -101.5 28.5t-40.5 91.5v68q0 187 196 449h-169v69h262v-58q-35 -42 -66 -88.5t-66 -110t-55.5 -136t-20.5 -139.5z" />
    <glyph glyph-name="eta" unicode="&#x3b7;" horiz-adv-x="382" 
d="M127 454q40 55 108 55q60 0 86 -43q11 -18 14 -41t3 -73v-511h-81v525q0 80 -59 80q-67 0 -67 -97v-349h-80v395q0 28 -4.5 34.5t-22.5 6.5h-4v69q16 4 37 4q58 0 70 -55z" />
    <glyph glyph-name="theta" unicode="&#x3b8;" horiz-adv-x="354" 
d="M318 543v-351q0 -32 -1 -49t-4.5 -45t-12.5 -43.5t-24 -32t-40.5 -24t-60.5 -7.5q-139 0 -139 158v365q0 100 29.5 147.5t115.5 47.5q38 0 65 -12t40.5 -28t21 -41.5t9 -42.5t1.5 -42zM235 211v139h-115v-160q0 -80 9 -108.5t46 -28.5q14 0 24.5 4.5t17 15.5t10.5 22
t5.5 32.5t2 37.5t0.5 46zM120 530v-120h115v143q0 25 -2 41t-15.5 32.5t-38.5 16.5q-36 0 -47.5 -26.5t-11.5 -86.5z" />
    <glyph glyph-name="iota" unicode="&#x3b9;" horiz-adv-x="175" 
d="M44 106v394h79v-390q0 -33 6.5 -41.5t27.5 -8.5h6v-60q-9 -1 -21 -1q-33 0 -53.5 8t-29.5 25t-12 33t-3 41z" />
    <glyph glyph-name="kappa" unicode="&#x3ba;" horiz-adv-x="361" 
d="M349 432h-7q-18 0 -26 -5.5t-28 -34.5l-60 -86l133 -306h-85l-102 232l-51 -70v-162h-79v500h79v-227l112 171q22 34 42 45t46 11h26v-68z" />
    <glyph glyph-name="lambda" unicode="&#x3bb;" horiz-adv-x="362" 
d="M148 489l-18 87q-13 64 -56 64q-11 0 -32 -6v69q16 6 42 6q88 0 108 -92l119 -519q8 -39 26 -39q11 0 25 4v-68q-17 -4 -37 -4q-27 0 -45.5 8.5t-28 25.5t-13 27.5t-7.5 30.5l-50 255l-90 -338h-86z" />
    <glyph glyph-name="uni03BC" unicode="&#x3bc;" 
d="M355 0h-101v47q-22 -33 -37.5 -44.5t-37.5 -11.5q-29 0 -55 26v-176h-80v659h80v-346q0 -52 8 -72q13 -31 53 -31q35 0 51 27t16 87v335h79v-419q0 -34 5 -50.5t19 -30.5z" />
    <glyph glyph-name="nu" unicode="&#x3bd;" horiz-adv-x="315" 
d="M291 408l-98 -408h-91l-102 500h87l61 -410l64 333q2 12 2 28q0 22 -7 49h81q7 -27 7 -49q0 -25 -4 -43z" />
    <glyph glyph-name="xi" unicode="&#x3be;" horiz-adv-x="310" 
d="M240 351q-64 -2 -93.5 -20.5t-29.5 -64.5v-139q0 -61 78 -61q71 0 91 -25t20 -79v-84h-77v83q0 23 -11 31t-40 8q-60 0 -101 29t-41 92v161q0 90 87 107q-68 21 -68 85v89q0 56 41 78h-56v65h278v-67h-105q-33 0 -54.5 -18.5t-21.5 -47.5v-93q0 -31 25 -46.5t86 -15.5h21
v-68q-7 1 -29 1z" />
    <glyph glyph-name="omicron" unicode="&#x3bf;" horiz-adv-x="354" 
d="M318 343v-151q0 -32 -1 -49t-4.5 -45t-12.5 -43.5t-24 -32t-40.5 -24t-60.5 -7.5q-139 0 -139 158v165q0 100 29.5 147.5t115.5 47.5q38 0 65 -12t40.5 -28t21 -41.5t9 -42.5t1.5 -42zM235 211v142q0 25 -2 41t-15.5 32.5t-38.5 16.5q-36 0 -47.5 -26.5t-11.5 -86.5v-140
q0 -80 9 -108.5t46 -28.5q14 0 24.5 4.5t17 15.5t10.5 22t5.5 32.5t2 37.5t0.5 46z" />
    <glyph glyph-name="pi" unicode="&#x3c0;" horiz-adv-x="427" 
d="M388 499v-67h-33v-322q0 -33 6.5 -41.5t27.5 -8.5h6v-60q-9 -1 -21 -1q-62 0 -81 27.5t-19 79.5v326h-123v-432h-80v432h-33v67h350z" />
    <glyph glyph-name="rho" unicode="&#x3c1;" 
d="M255 161v192q0 24 -2.5 40.5t-17.5 33t-43 16.5q-40 0 -52.5 -26.5t-12.5 -86.5v-176q0 -44 16 -73.5t51 -29.5q21 0 34.5 10.5t18.5 30.5t6.5 34t1.5 35zM339 343v-140q0 -37 -1.5 -61t-8 -56t-18.5 -50t-35 -31.5t-56 -13.5q-62 0 -94 51v-201h-82v473q0 100 31 147.5
t121 47.5q40 0 68 -12t42.5 -28t22 -41.5t9 -42.5t1.5 -42z" />
    <glyph glyph-name="sigma1" unicode="&#x3c2;" horiz-adv-x="354" 
d="M168 0q-77 0 -104.5 55t-27.5 167v65q0 117 28.5 169.5t116.5 52.5q83 0 111 -40.5t28 -121.5v-28h-76v26q0 26 -1.5 41t-7.5 31.5t-19 23.5t-35 7q-39 0 -51.5 -28.5t-12.5 -113.5v-98q0 -83 12 -112.5t50 -29.5q70 0 92 -25.5t22 -78.5v-84h-77v83q0 23 -9.5 31
t-38.5 8z" />
    <glyph glyph-name="sigma" unicode="&#x3c3;" horiz-adv-x="362" 
d="M337 432h-71q52 -22 52 -98v-142q0 -32 -1 -49t-4.5 -45t-12.5 -43.5t-24 -32t-40.5 -24t-60.5 -7.5q-139 0 -139 158v156q0 100 29.5 147.5t115.5 47.5h156v-68zM235 211v133q0 25 -2 41t-15.5 32.5t-38.5 16.5q-36 0 -47.5 -26.5t-11.5 -86.5v-131q0 -80 9 -108.5
t46 -28.5q14 0 24.5 4.5t17 15.5t10.5 22t5.5 32.5t2 37.5t0.5 46z" />
    <glyph glyph-name="tau" unicode="&#x3c4;" horiz-adv-x="254" 
d="M58 499l193 1v-68h-83v-315q0 -27 9 -42.5t37 -15.5q14 0 28 4v-65q-21 -7 -45 -7q-70 0 -90.5 29t-20.5 96v316h-39q-18 0 -44 -8v67q25 8 55 8z" />
    <glyph glyph-name="upsilon" unicode="&#x3c5;" 
d="M331 500v-315q0 -37 -1.5 -58t-9 -50.5t-22 -45.5t-43.5 -28t-70 -12q-141 0 -141 151v358h80v-317q0 -75 12 -102.5t53 -27.5q40 0 51.5 27t11.5 102v318h79z" />
    <glyph glyph-name="phi" unicode="&#x3c6;" horiz-adv-x="509" 
d="M214 50v396q-52 -1 -74.5 -35t-22.5 -101v-122q0 -67 22.5 -102t74.5 -36zM214 508v126h81v-126q93 -2 135.5 -50t42.5 -150v-118q0 -101 -42.5 -148.5t-135.5 -49.5v-151h-81v151q-93 2 -135.5 49.5t-42.5 148.5v118q0 102 42.5 150t135.5 50zM295 446v-396
q52 1 74.5 36t22.5 102v122q0 67 -22.5 101t-74.5 35z" />
    <glyph glyph-name="chi" unicode="&#x3c7;" horiz-adv-x="333" 
d="M33 440q-12 0 -19 -2v68q13 3 31 3q45 0 62.5 -16.5t26.5 -58.5l34 -166l60 232h90l-105 -304l89 -267q10 -28 24 -28q11 0 16 1v-68q-10 -2 -28 -2q-46 0 -63 15t-27 57l-56 218l-75 -281h-88l120 355l-70 221q-8 23 -22 23z" />
    <glyph glyph-name="psi" unicode="&#x3c8;" horiz-adv-x="499" 
d="M289 634v-583q95 0 95 141v308h81v-310q0 -102 -42 -151t-134 -49v-149h-81v149q-92 0 -133 47t-41 149v314h81v-278q0 -102 19 -136.5t74 -34.5v583h81z" />
    <glyph glyph-name="omega" unicode="&#x3c9;" horiz-adv-x="514" 
d="M478 148q0 -65 -30 -111.5t-96 -46.5q-79 0 -95 69q-16 -69 -95 -69q-66 0 -96 46.5t-30 111.5v168q0 60 10.5 98.5t31 56t41.5 23.5t52 6h19v-66q-43 0 -56.5 -16.5t-13.5 -79.5v-200q0 -35 10.5 -60t29.5 -25q35 0 46 30t11 99v173h80v-173q0 -69 11 -99t46 -30
q19 0 29.5 25t10.5 60v200q0 63 -13.5 79.5t-56.5 16.5v66h19q31 0 52 -6t41.5 -23.5t31 -56t10.5 -98.5v-168z" />
    <glyph glyph-name="iotadieresis" unicode="&#x3ca;" horiz-adv-x="175" 
d="M201 563h-78v103h78v-103zM46 563h-78v103h78v-103zM44 106v394h79v-390q0 -33 6.5 -41.5t27.5 -8.5h6v-60q-9 -1 -21 -1q-33 0 -53.5 8t-29.5 25t-12 33t-3 41z" />
    <glyph glyph-name="upsilondieresis" unicode="&#x3cb;" 
d="M331 500v-315q0 -37 -1.5 -58t-9 -50.5t-22 -45.5t-43.5 -28t-70 -12q-141 0 -141 151v358h80v-317q0 -75 12 -102.5t53 -27.5q40 0 51.5 27t11.5 102v318h79zM306 563h-78v103h78v-103zM151 563h-78v103h78v-103z" />
    <glyph glyph-name="omicrontonos" unicode="&#x3cc;" horiz-adv-x="354" 
d="M318 343v-151q0 -32 -1 -49t-4.5 -45t-12.5 -43.5t-24 -32t-40.5 -24t-60.5 -7.5q-139 0 -139 158v165q0 100 29.5 147.5t115.5 47.5q38 0 65 -12t40.5 -28t21 -41.5t9 -42.5t1.5 -42zM235 211v142q0 25 -2 41t-15.5 32.5t-38.5 16.5q-36 0 -47.5 -26.5t-11.5 -86.5v-140
q0 -80 9 -108.5t46 -28.5q14 0 24.5 4.5t17 15.5t10.5 22t5.5 32.5t2 37.5t0.5 46zM294 671l-98 -108h-64l53 108h109z" />
    <glyph glyph-name="upsilontonos" unicode="&#x3cd;" 
d="M331 500v-315q0 -37 -1.5 -58t-9 -50.5t-22 -45.5t-43.5 -28t-70 -12q-141 0 -141 151v358h80v-317q0 -75 12 -102.5t53 -27.5q40 0 51.5 27t11.5 102v318h79zM295 671l-98 -108h-64l53 108h109z" />
    <glyph glyph-name="omegatonos" unicode="&#x3ce;" horiz-adv-x="514" 
d="M478 148q0 -65 -30 -111.5t-96 -46.5q-79 0 -95 69q-16 -69 -95 -69q-66 0 -96 46.5t-30 111.5v168q0 60 10.5 98.5t31 56t41.5 23.5t52 6h19v-66q-43 0 -56.5 -16.5t-13.5 -79.5v-200q0 -35 10.5 -60t29.5 -25q35 0 46 30t11 99v173h80v-173q0 -69 11 -99t46 -30
q19 0 29.5 25t10.5 60v200q0 63 -13.5 79.5t-56.5 16.5v66h19q31 0 52 -6t41.5 -23.5t31 -56t10.5 -98.5v-168zM381 671l-98 -108h-64l53 108h109z" />
    <glyph glyph-name="afii10023" unicode="&#x401;" horiz-adv-x="396" 
d="M368 0h-318v706h311v-79h-223v-210h195v-80h-195v-258h230v-79zM329 764h-83v107h83v-107zM151 764h-83v107h83v-107z" />
    <glyph glyph-name="afii10051" unicode="&#x402;" horiz-adv-x="460" 
d="M110 0v627h-100v79h321v-79h-134v-214q48 25 100 25q126 0 126 -128v-158q0 -33 -1 -50.5t-7 -41t-18 -35.5t-35 -21t-57 -9q-29 0 -74 7v80q28 -9 62 -9q27 0 34.5 14t7.5 45v155q0 74 -64 74q-35 0 -74 -21v-340h-87z" />
    <glyph glyph-name="afii10052" unicode="&#x403;" 
d="M361 627h-222v-627h-89v706h311v-79zM316 871l-98 -107h-64l53 107h109z" />
    <glyph glyph-name="afii10053" unicode="&#x404;" horiz-adv-x="417" 
d="M131 329v-56q0 -145 17 -174q20 -35 71 -35q22 0 38 9.5t23.5 21.5t12 33t5 34t0.5 34v53h82v-76q0 -137 -88 -171q-33 -12 -78 -12t-78 15t-50.5 36t-27 52t-12 55t-2.5 54v278q0 128 38 179q43 58 139 58q73 0 118 -45q20 -21 28.5 -52.5t8.5 -89.5v-46h-82v67
q0 92 -73 92q-66 0 -80 -62q-10 -43 -10 -131v-44h173v-77h-173z" />
    <glyph glyph-name="afii10054" unicode="&#x405;" horiz-adv-x="396" 
d="M357 498h-78v45q0 45 -15 72t-61 27q-74 0 -74 -85q0 -13 1.5 -24t6.5 -21.5t8.5 -17.5t12.5 -17.5t12 -14.5t15 -16t14 -15l111 -118q61 -65 61 -153q0 -97 -64 -140q-44 -30 -110 -30q-82 0 -126 44.5t-44 131.5v78h83v-65q0 -53 18 -83.5t69 -30.5q41 0 65 23.5
t24 64.5q0 27 -10 50.5t-20.5 36t-35.5 38.5l-95 98q-45 47 -63 83t-18 94q0 164 164 164q119 0 143 -92q6 -24 6 -82v-45z" />
    <glyph glyph-name="afii10055" unicode="&#x406;" horiz-adv-x="187" 
d="M137 0h-87v706h87v-706z" />
    <glyph glyph-name="afii10056" unicode="&#x407;" horiz-adv-x="187" 
d="M137 0h-87v706h87v-706zM196 764h-83v107h83v-107zM74 764h-83v107h83v-107z" />
    <glyph glyph-name="afii10057" unicode="&#x408;" horiz-adv-x="396" 
d="M349 706v-517q0 -33 -1 -51.5t-9 -45.5t-24 -47q-46 -56 -140 -56q-63 0 -103 32q-33 26 -43 63t-10 92v37h85v-64q0 -84 75 -84q44 0 63 26.5t19 87.5v527h88z" />
    <glyph glyph-name="afii10058" unicode="&#x409;" horiz-adv-x="668" 
d="M82 706h306v-290h96q81 0 119 -47q24 -30 30.5 -65.5t6.5 -99.5q0 -115 -37 -160q-36 -44 -140 -44h-163v629h-130v-445q0 -109 -27 -146.5t-105 -37.5h-26v78h4q37 0 51.5 22t14.5 73v533zM388 336v-259h76q33 0 51.5 7.5t27 28t10 39.5t1.5 60q0 77 -21.5 100.5
t-97.5 23.5h-47z" />
    <glyph glyph-name="afii10059" unicode="&#x40a;" horiz-adv-x="667" 
d="M299 706h88v-295h96q81 0 119 -47q25 -30 31 -63.5t6 -96.5q0 -115 -37 -160q-36 -44 -140 -44h-163v334h-161v-334h-88v706h88v-295h161v295zM387 334v-257h76q33 0 51.5 7.5t27 28t10 39.5t1.5 60q0 76 -21 99t-98 23h-47z" />
    <glyph glyph-name="afii10060" unicode="&#x40b;" horiz-adv-x="460" 
d="M331 627h-134v-214q48 25 100 25q126 0 126 -128v-310h-88v287q0 74 -64 74q-35 0 -74 -21v-340h-87v627h-100v79h321v-79z" />
    <glyph glyph-name="afii10061" unicode="&#x40c;" horiz-adv-x="413" 
d="M50 706h88v-295h49q39 0 53.5 23.5t14.5 82.5v71q0 118 95 118h36v-79q-24 0 -33 -11.5t-9 -41.5v-78q0 -94 -62 -121q39 -12 56 -42t17 -84v-117q0 -30 9 -41.5t33 -11.5v-79h-36q-94 0 -94 120v108q0 59 -15 82.5t-54 23.5h-60v-334h-88v706zM328 871l-98 -107h-64
l53 107h109z" />
    <glyph glyph-name="afii10062" unicode="&#x40e;" horiz-adv-x="396" 
d="M204 300l91 406h94l-162 -583q-21 -75 -48 -99t-82 -24h-30v79h30q31 0 43.5 20t23.5 77l-166 530h92zM196 743q-62 0 -92.5 29.5t-30.5 76.5h71q0 -47 52 -47t52 47h71q0 -47 -30.5 -76.5t-92.5 -29.5z" />
    <glyph glyph-name="afii10145" unicode="&#x40f;" horiz-adv-x="437" 
d="M174 0h-124v706h88v-629h161v629h88v-706h-125v-140h-88v140z" />
    <glyph glyph-name="afii10017" unicode="&#x410;" horiz-adv-x="396" 
d="M396 0h-92l-25 136h-164l-24 -136h-91l152 706h88zM264 212l-69 363l-65 -363h134z" />
    <glyph glyph-name="afii10018" unicode="&#x411;" horiz-adv-x="424" 
d="M361 627h-224v-201h96q81 0 119 -47q24 -30 30.5 -67.5t6.5 -102.5q0 -120 -37 -165q-36 -44 -140 -44h-162v706h311v-79zM137 346v-269h76q26 0 43.5 7t26.5 16t13.5 30t5.5 37.5t1 49.5q0 78 -21.5 103.5t-97.5 25.5h-47z" />
    <glyph glyph-name="afii10019" unicode="&#x412;" horiz-adv-x="437" 
d="M50 706h175q50 0 84.5 -14.5t51.5 -39.5t23.5 -49.5t6.5 -52.5q0 -169 -113 -169q19 0 36.5 -5.5t39.5 -20.5t35 -50.5t13 -87.5q0 -69 -10 -106t-34 -62q-27 -29 -62.5 -39t-114.5 -10h-131v706zM138 627v-211h61q20 0 33.5 1.5t28.5 7.5t23.5 17t14.5 31t6 49
q0 36 -8 58.5t-24.5 32t-31 12t-37.5 2.5h-66zM138 340v-264h70q59 0 83 26t24 97q0 80 -22.5 110.5t-91.5 30.5h-63z" />
    <glyph glyph-name="afii10020" unicode="&#x413;" 
d="M361 627h-222v-627h-89v706h311v-79z" />
    <glyph glyph-name="afii10021" unicode="&#x414;" horiz-adv-x="479" 
d="M401 706v-629h64v-217h-88v140h-277v-140h-88v217q6 0 13.5 2t20.5 13.5t23.5 31t18 59t7.5 92.5v431h306zM183 275q0 -139 -41 -198h171v552h-130v-354z" />
    <glyph glyph-name="afii10022" unicode="&#x415;" horiz-adv-x="396" 
d="M368 0h-318v706h311v-79h-223v-210h195v-80h-195v-258h230v-79z" />
    <glyph glyph-name="afii10024" unicode="&#x416;" horiz-adv-x="628" 
d="M270 706h88v-295h44q39 0 53.5 23.5t14.5 82.5v71q0 118 95 118h36v-79q-24 0 -33 -11.5t-9 -41.5v-78q0 -94 -62 -121q39 -12 56 -42t17 -84v-117q0 -30 9 -41.5t33 -11.5v-79h-36q-94 0 -94 120v108q0 59 -15 82.5t-54 23.5h-55v-334h-88v334h-55q-39 0 -54 -23.5
t-15 -82.5v-108q0 -120 -94 -120h-36v79q24 0 33 11.5t9 41.5v117q0 54 17 84t56 42q-62 27 -62 121v78q0 30 -9 41.5t-33 11.5v79h36q95 0 95 -118v-71q0 -59 14.5 -82.5t53.5 -23.5h44v295z" />
    <glyph glyph-name="afii10025" unicode="&#x417;" horiz-adv-x="409" 
d="M109 406h68q52 0 77.5 21t25.5 89q0 127 -83 127q-78 0 -78 -92v-67h-82v46q0 95 37 141t128 46q166 0 166 -201q0 -123 -91 -146q47 -12 72 -46t25 -122q0 -30 -2.5 -54t-12 -55t-27 -52t-50.5 -36t-78 -15q-77 0 -121.5 40t-44.5 143v76h82v-53q0 -28 2.5 -47.5
t10.5 -41t26 -32.5t46 -11q47 0 64 36.5t17 107.5q0 68 -21.5 94.5t-85.5 26.5h-70v77z" />
    <glyph glyph-name="afii10026" unicode="&#x418;" horiz-adv-x="447" 
d="M397 0h-88v460l-171 -383v-77h-88v706h88v-451l171 383v68h88v-706z" />
    <glyph glyph-name="afii10027" unicode="&#x419;" horiz-adv-x="447" 
d="M397 0h-88v460l-171 -383v-77h-88v706h88v-451l171 383v68h88v-706zM223 743q-62 0 -92.5 29.5t-30.5 76.5h71q0 -47 52 -47t52 47h71q0 -47 -30.5 -76.5t-92.5 -29.5z" />
    <glyph glyph-name="afii10028" unicode="&#x41a;" horiz-adv-x="413" 
d="M50 706h88v-295h49q39 0 53.5 23.5t14.5 82.5v71q0 118 95 118h36v-79q-24 0 -33 -11.5t-9 -41.5v-78q0 -94 -62 -121q39 -12 56 -42t17 -84v-117q0 -30 9 -41.5t33 -11.5v-79h-36q-94 0 -94 120v108q0 59 -15 82.5t-54 23.5h-60v-334h-88v706z" />
    <glyph glyph-name="afii10029" unicode="&#x41b;" horiz-adv-x="438" 
d="M388 706v-706h-88v629h-130v-445q0 -109 -27 -146.5t-105 -37.5h-26v78h4q37 0 51.5 22t14.5 73v533h306z" />
    <glyph glyph-name="afii10030" unicode="&#x41c;" horiz-adv-x="562" 
d="M512 0h-81l12 639l-105 -639h-111l-105 639q12 -581 14 -639h-86v706h132l99 -630l97 630h134v-706z" />
    <glyph glyph-name="afii10031" unicode="&#x41d;" horiz-adv-x="437" 
d="M387 0h-88v329h-161v-329h-88v706h88v-300h161v300h88v-706z" />
    <glyph glyph-name="afii10032" unicode="&#x41e;" horiz-adv-x="437" 
d="M393 496v-200q0 -174 -35.5 -240t-144.5 -66q-47 0 -79 13.5t-49.5 33t-27 57t-11.5 70.5t-2 88v235q0 121 40 172q46 58 143 58q95 0 130.5 -54.5t35.5 -166.5zM134 492v-275q0 -75 9 -103q17 -51 75 -51q53 0 69 41.5t16 155.5v232q0 31 -0.5 46.5t-4.5 39.5
t-12.5 35.5t-24.5 20.5t-40 9q-51 0 -69 -36t-18 -115z" />
    <glyph glyph-name="afii10033" unicode="&#x41f;" horiz-adv-x="437" 
d="M387 0h-88v629h-161v-629h-88v706h337v-706z" />
    <glyph glyph-name="afii10034" unicode="&#x420;" horiz-adv-x="417" 
d="M50 706h183q81 0 119 -47q24 -30 30.5 -65.5t6.5 -99.5q0 -115 -37 -160q-36 -44 -140 -44h-74v-290h-88v706zM138 626v-259h75q33 0 51.5 7.5t27 28t10 39.5t1.5 60q0 77 -21.5 100.5t-97.5 23.5h-46z" />
    <glyph glyph-name="afii10035" unicode="&#x421;" horiz-adv-x="417" 
d="M380 249v-76q0 -137 -88 -171q-33 -12 -78 -12t-78 15t-50.5 36t-27 52t-12 55t-2.5 54v278q0 128 38 179q43 58 139 58q73 0 118 -45q20 -21 28.5 -52.5t8.5 -89.5v-46h-82v67q0 92 -73 92q-66 0 -80 -62q-10 -43 -10 -131v-177q0 -145 17 -174q20 -35 71 -35
q22 0 38 9.5t23.5 21.5t12 33t5 34t0.5 34v53h82z" />
    <glyph glyph-name="afii10036" unicode="&#x422;" 
d="M365 627h-134v-627h-87v627h-134v79h355v-79z" />
    <glyph glyph-name="afii10037" unicode="&#x423;" horiz-adv-x="396" 
d="M204 300l91 406h94l-162 -583q-21 -75 -48 -99t-82 -24h-30v79h30q31 0 43.5 20t23.5 77l-166 530h92z" />
    <glyph glyph-name="afii10038" unicode="&#x424;" horiz-adv-x="588" 
d="M250 720h88v-113h42q180 0 180 -183v-138q0 -103 -46 -141.5t-134 -38.5h-42v-116h-88v116h-42q-88 0 -134 38.5t-46 141.5v138q0 183 180 183h42v113zM338 526v-342h29q64 0 85 23.5t21 78.5v138q0 55 -21 78.5t-85 23.5h-29zM250 184v342h-29q-64 0 -85 -23.5
t-21 -78.5v-138q0 -55 21 -78.5t85 -23.5h29z" />
    <glyph glyph-name="afii10039" unicode="&#x425;" horiz-adv-x="396" 
d="M396 0h-95l-108 306l-101 -306h-92l135 385l-126 321h97l85 -271l79 271h94l-116 -321z" />
    <glyph glyph-name="afii10040" unicode="&#x426;" horiz-adv-x="464" 
d="M362 0h-312v706h88v-629h161v629h88v-629h63v-217h-88v140z" />
    <glyph glyph-name="afii10041" unicode="&#x427;" horiz-adv-x="401" 
d="M351 0h-88v338q-48 -25 -100 -25q-126 0 -126 128v265h88v-242q0 -74 64 -74q35 0 74 21v295h88v-706z" />
    <glyph glyph-name="afii10042" unicode="&#x428;" horiz-adv-x="588" 
d="M538 0h-488v706h88v-629h112v629h88v-629h112v629h88v-706z" />
    <glyph glyph-name="afii10043" unicode="&#x429;" horiz-adv-x="615" 
d="M513 0h-463v706h88v-629h112v629h88v-629h112v629h88v-629h63v-217h-88v140z" />
    <glyph glyph-name="afii10044" unicode="&#x42a;" horiz-adv-x="501" 
d="M0 706h221v-290h96q81 0 119 -47q24 -30 30.5 -65.5t6.5 -99.5q0 -115 -37 -160q-36 -44 -140 -44h-162v627h-134v79zM221 336v-259h76q33 0 51.5 7.5t27 28t10 39.5t1.5 60q0 77 -21.5 100.5t-97.5 23.5h-47z" />
    <glyph glyph-name="afii10045" unicode="&#x42b;" horiz-adv-x="590" 
d="M50 706h87v-290h96q81 0 119 -47q24 -30 30.5 -65.5t6.5 -99.5q0 -115 -37 -160q-36 -44 -140 -44h-162v706zM137 336v-259h76q33 0 51.5 7.5t27 28t10 39.5t1.5 60q0 77 -21.5 100.5t-97.5 23.5h-47zM540 0h-87v706h87v-706z" />
    <glyph glyph-name="afii10046" unicode="&#x42c;" horiz-adv-x="417" 
d="M50 706h87v-290h96q81 0 119 -47q24 -30 30.5 -65.5t6.5 -99.5q0 -115 -37 -160q-36 -44 -140 -44h-162v706zM137 336v-259h76q33 0 51.5 7.5t27 28t10 39.5t1.5 60q0 77 -21.5 100.5t-97.5 23.5h-47z" />
    <glyph glyph-name="afii10047" unicode="&#x42d;" horiz-adv-x="417" 
d="M286 273v56h-173v77h173v44q0 88 -10 131q-14 62 -80 62q-73 0 -73 -92v-67h-82v46q0 58 8.5 89.5t28.5 52.5q45 45 118 45q96 0 139 -58q38 -51 38 -179v-278q0 -30 -2.5 -54t-12 -55t-27 -52t-50.5 -36t-78 -15t-78 12q-88 34 -88 171v76h82v-53q0 -21 0.5 -34t5 -34
t12 -33t23.5 -21.5t38 -9.5q51 0 71 35q17 29 17 174z" />
    <glyph glyph-name="afii10048" unicode="&#x42e;" horiz-adv-x="629" 
d="M585 496v-200q0 -174 -35.5 -240t-144.5 -66q-47 0 -79 13.5t-49.5 33t-27 57t-11.5 70.5t-2 88v77h-98v-329h-88v706h88v-300h98v81q0 121 40 172q46 58 143 58q95 0 130.5 -54.5t35.5 -166.5zM326 492v-275q0 -75 9 -103q17 -51 75 -51q53 0 69 41.5t16 155.5v232
q0 31 -0.5 46.5t-4.5 39.5t-12.5 35.5t-24.5 20.5t-40 9q-51 0 -69 -36t-18 -115z" />
    <glyph glyph-name="afii10049" unicode="&#x42f;" horiz-adv-x="436" 
d="M299 310h-88q-37 0 -51 -23.5t-14 -82.5v-84q0 -120 -94 -120h-36v79q24 0 33 11.5t9 41.5v103q0 43 16.5 73.5t46.5 38.5q-40 18 -58 51.5t-18 111.5q0 116 45.5 156t141.5 40h154v-706h-87v310zM299 379v247h-63q-57 0 -80 -22.5t-23 -90.5q0 -81 19 -107.5t85 -26.5
h62z" />
    <glyph glyph-name="afii10065" unicode="&#x430;" horiz-adv-x="354" 
d="M109 336h-71v29q0 26 1 39t7 31t18 33q35 41 113 41q65 0 100 -35q32 -32 32 -102v-266q0 -52 4 -73.5t20 -32.5h-98v60q-33 -69 -104 -69q-33 0 -60 16q-52 31 -52 114q0 46 18 77t42.5 47t70 47t80.5 66v17q0 70 -61 70q-60 0 -60 -63v-46zM230 162v123
q-17 -18 -55 -44t-56 -51.5t-18 -67.5q0 -72 54 -72q33 0 56 29q19 25 19 83z" />
    <glyph glyph-name="afii10066" unicode="&#x431;" horiz-adv-x="354" 
d="M318 343v-151q0 -32 -1 -49t-4.5 -45t-12.5 -43.5t-24 -32t-40.5 -24t-60.5 -7.5q-139 0 -139 158v219q0 100 14 154.5t55 90.5q16 13 46 30t46 31t16 32h93q0 -20 -6 -36t-21.5 -30t-25 -21t-34 -20.5t-30.5 -17.5q-48 -29 -67 -55.5t-19 -64.5q36 48 95 48q33 0 57 -12
t35.5 -28t18.5 -41.5t8 -42.5t1 -42zM235 211v142q0 25 -2 41t-15.5 32.5t-38.5 16.5q-36 0 -47.5 -26.5t-11.5 -86.5v-140q0 -80 9 -108.5t46 -28.5q14 0 24.5 4.5t17 15.5t10.5 22t5.5 32.5t2 37.5t0.5 46z" />
    <glyph glyph-name="afii10067" unicode="&#x432;" horiz-adv-x="339" 
d="M44 500h134q38 0 64.5 -10.5t39.5 -28t18 -34.5t5 -37q0 -34 -6 -57.5t-17 -36t-20.5 -18t-23.5 -8.5q15 -3 25 -8t23 -16.5t20 -34.5t7 -57q0 -88 -33 -120q-21 -20 -48 -27t-88 -7h-100v500zM124 440v-147h27q26 0 41 3.5t27 20.5t12 50q0 25 -6 40.5t-18.5 22t-23 8.5
t-28.5 2h-31zM124 233v-173h33q41 0 58 16.5t17 63.5q0 52 -16 72.5t-65 20.5h-27z" />
    <glyph glyph-name="afii10068" unicode="&#x433;" horiz-adv-x="275" 
d="M124 0h-80v500h224v-60h-144v-440z" />
    <glyph glyph-name="afii10069" unicode="&#x434;" horiz-adv-x="403" 
d="M78 500h264v-440h51v-198h-79v138h-225v-138h-79v198q5 0 12 3.5t17 15.5t18.5 32t14.5 57.5t6 86.5v245zM158 257q0 -87 -8 -129t-30 -68h142v380h-104v-183z" />
    <glyph glyph-name="afii10070" unicode="&#x435;" horiz-adv-x="354" 
d="M318 155v-20q0 -23 -4.5 -44t-17.5 -45.5t-43 -39.5t-74 -15q-91 0 -125 67q-11 24 -14.5 50t-3.5 114v83q0 40 2 66.5t10.5 55t23 44.5t41 26.5t63.5 10.5q142 0 142 -153v-120h-202v-56q0 -32 1.5 -49t7.5 -37t20 -28.5t37 -8.5q31 0 46 20t15 69v10h75zM243 299v45
q0 33 -3 52t-17.5 35t-42.5 16q-39 0 -51 -27t-12 -88v-33h126z" />
    <glyph glyph-name="afii10072" unicode="&#x436;" horiz-adv-x="546" 
d="M233 500h80v-207h31q34 0 47.5 15.5t13.5 56.5v52q0 83 86 83h27v-60q-20 0 -26.5 -10.5t-6.5 -38.5v-39q0 -38 -9.5 -58t-36.5 -31q30 -8 40.5 -28.5t10.5 -59.5v-66q0 -27 7.5 -38t28.5 -11v-60h-30q-86 0 -86 77v75q0 43 -12.5 62t-43.5 19h-41v-233h-80v233h-41
q-31 0 -43.5 -19t-12.5 -62v-75q0 -77 -86 -77h-30v60q21 0 28.5 11t7.5 38v66q0 39 10.5 59.5t40.5 28.5q-27 11 -36.5 31t-9.5 58v39q0 28 -6.5 38.5t-26.5 10.5v60h27q86 0 86 -83v-52q0 -41 13.5 -56.5t47.5 -15.5h31v207z" />
    <glyph glyph-name="afii10073" unicode="&#x437;" horiz-adv-x="330" 
d="M164 509q40 0 67.5 -13t40 -34.5t17 -41t4.5 -41.5q0 -97 -61 -116q72 -20 72 -116q0 -84 -35.5 -120t-108.5 -36q-78 0 -112.5 40.5t-34.5 131.5v13h76q0 -63 15.5 -92.5t54.5 -29.5q34 0 49.5 21.5t15.5 67.5q0 45 -16.5 65.5t-58.5 20.5h-66v60h59q38 0 54.5 16
t16.5 66q0 77 -55 77q-38 0 -49.5 -25t-11.5 -78v-16h-76v18q0 81 28.5 121.5t114.5 40.5z" />
    <glyph glyph-name="afii10074" unicode="&#x438;" horiz-adv-x="380" 
d="M124 0h-80v500h80v-314l132 265v49h80v-500h-80v317l-132 -265v-52z" />
    <glyph glyph-name="afii10075" unicode="&#x439;" horiz-adv-x="380" 
d="M124 0h-80v500h80v-314l132 265v49h80v-500h-80v317l-132 -265v-52zM190 570q-113 0 -113 102h68q0 -46 45 -46t45 46h68q0 -102 -113 -102z" />
    <glyph glyph-name="afii10076" unicode="&#x43a;" horiz-adv-x="362" 
d="M44 500h80v-207h36q34 0 47.5 15.5t13.5 56.5v52q0 83 86 83h27v-60q-20 0 -26.5 -10.5t-6.5 -38.5v-39q0 -38 -9.5 -58t-36.5 -31q30 -8 40.5 -28.5t10.5 -59.5v-66q0 -27 7.5 -38t28.5 -11v-60h-30q-86 0 -86 77v75q0 43 -12.5 62t-43.5 19h-46v-233h-80v500z" />
    <glyph glyph-name="afii10077" unicode="&#x43b;" horiz-adv-x="382" 
d="M74 140v360h264v-500h-80v440h-104v-296q0 -68 -26 -106.5t-98 -38.5q-5 0 -16.5 0.5t-13.5 0.5v66q2 0 10 -0.5t12 -0.5q52 0 52 75z" />
    <glyph glyph-name="afii10078" unicode="&#x43c;" horiz-adv-x="481" 
d="M437 0h-74l11 411l-80 -411h-105l-79 411q10 -369 12 -411h-78v500h112l84 -447l83 447h114v-500z" />
    <glyph glyph-name="afii10079" unicode="&#x43d;" 
d="M124 0h-80v500h80v-209h127v209h80v-500h-80v231h-127v-231z" />
    <glyph glyph-name="afii10080" unicode="&#x43e;" horiz-adv-x="354" 
d="M318 343v-151q0 -32 -1 -49t-4.5 -45t-12.5 -43.5t-24 -32t-40.5 -24t-60.5 -7.5q-139 0 -139 158v165q0 100 29.5 147.5t115.5 47.5q38 0 65 -12t40.5 -28t21 -41.5t9 -42.5t1.5 -42zM235 211v142q0 25 -2 41t-15.5 32.5t-38.5 16.5q-36 0 -47.5 -26.5t-11.5 -86.5v-140
q0 -80 9 -108.5t46 -28.5q14 0 24.5 4.5t17 15.5t10.5 22t5.5 32.5t2 37.5t0.5 46z" />
    <glyph glyph-name="afii10081" unicode="&#x43f;" horiz-adv-x="372" 
d="M124 0h-80v500h284v-500h-80v440h-124v-440z" />
    <glyph glyph-name="afii10082" unicode="&#x440;" 
d="M44 500h80v-48q41 57 101 57q114 0 114 -164v-142q0 -37 -1.5 -61t-8 -56t-18.5 -50t-35 -31.5t-56 -13.5q-62 0 -94 51v-201h-82v659zM255 161v186q0 98 -58 98q-70 0 -70 -124v-167q0 -44 16 -73.5t51 -29.5q21 0 34.5 10.5t18.5 30.5t6.5 34t1.5 35z" />
    <glyph glyph-name="afii10083" unicode="&#x441;" horiz-adv-x="354" 
d="M320 186v-13q0 -99 -32.5 -140.5t-113.5 -41.5q-92 0 -120 63q-18 38 -18 174v59q0 117 28.5 169.5t116.5 52.5q83 0 111 -40.5t28 -121.5v-28h-76v26q0 26 -1.5 41t-7.5 31.5t-19 23.5t-35 7q-39 0 -51.5 -28.5t-12.5 -113.5v-133q0 -26 0.5 -38.5t3.5 -31t9.5 -27
t19 -15.5t30.5 -7q39 0 51.5 29.5t12.5 102.5h76z" />
    <glyph glyph-name="afii10084" unicode="&#x442;" horiz-adv-x="285" 
d="M278 440h-94v-440h-82v440h-95v60h271v-60z" />
    <glyph glyph-name="afii10085" unicode="&#x443;" horiz-adv-x="333" 
d="M235 500h85l-98 -498q-6 -33 -10.5 -50t-16 -43t-28.5 -42q-30 -30 -95 -30h-52v69q10 -1 30 -1q16 0 25.5 1t24 6t22 18t7.5 34q0 17 -10 61l-113 475h86l79 -402z" />
    <glyph glyph-name="afii10086" unicode="&#x444;" horiz-adv-x="506" 
d="M295 -159h-81v159h-39q-139 0 -139 158v147q0 100 29.5 147.5t115.5 47.5h33v206h81v-206h30q86 0 115.5 -47.5t29.5 -147.5v-147q0 -158 -139 -158h-36v-159zM175 62h39v372h-35q-36 0 -47.5 -26.5t-11.5 -86.5v-122q0 -80 9 -108.5t46 -28.5zM295 434v-372h36
q37 0 46 28.5t9 108.5v122q0 60 -11.5 86.5t-47.5 26.5h-32z" />
    <glyph glyph-name="afii10087" unicode="&#x445;" horiz-adv-x="333" 
d="M333 0h-91l-79 198l-75 -198h-88l120 268l-104 232h93l54 -164l60 164h90l-105 -232z" />
    <glyph glyph-name="afii10088" unicode="&#x446;" horiz-adv-x="390" 
d="M300 0h-256v500h80v-440h124v440h80v-440h52v-198h-80v138z" />
    <glyph glyph-name="afii10089" unicode="&#x447;" horiz-adv-x="327" 
d="M283 0h-80v223q-36 -17 -78 -17q-99 0 -99 86v208h80v-179q0 -46 44 -46q27 0 53 13v212h80v-500z" />
    <glyph glyph-name="afii10090" unicode="&#x448;" horiz-adv-x="508" 
d="M464 0h-420v500h80v-440h90v440h80v-440h90v440h80v-500z" />
    <glyph glyph-name="afii10091" unicode="&#x449;" horiz-adv-x="526" 
d="M436 0h-392v500h80v-440h90v440h80v-440h90v440h80v-440h52v-198h-80v138z" />
    <glyph glyph-name="afii10092" unicode="&#x44a;" horiz-adv-x="387" 
d="M171 500v-192h65q125 0 125 -151q0 -78 -30 -117.5t-95 -39.5h-145v432h-91v68h171zM171 248v-188h43q38 0 51 23t13 74q0 48 -13.5 69.5t-50.5 21.5h-43z" />
    <glyph glyph-name="afii10093" unicode="&#x44b;" horiz-adv-x="480" 
d="M44 500h80v-192h65q125 0 125 -151q0 -78 -30 -117.5t-95 -39.5h-145v500zM124 248v-188h43q38 0 51 23t13 74q0 48 -13.5 69.5t-50.5 21.5h-43zM436 0h-79v500h79v-500z" />
    <glyph glyph-name="afii10094" unicode="&#x44c;" horiz-adv-x="340" 
d="M44 500h80v-192h65q125 0 125 -151q0 -78 -30 -117.5t-95 -39.5h-145v500zM124 248v-188h43q38 0 51 23t13 74q0 48 -13.5 69.5t-50.5 21.5h-43z" />
    <glyph glyph-name="afii10095" unicode="&#x44d;" horiz-adv-x="354" 
d="M237 173v56h-137v60h137v17q0 85 -12.5 113.5t-51.5 28.5q-22 0 -35 -7t-19 -23.5t-7.5 -31.5t-1.5 -41v-16h-76v18q0 81 28 121.5t111 40.5q88 0 116.5 -52.5t28.5 -169.5v-59q0 -136 -18 -174q-28 -63 -120 -63q-81 0 -113.5 40t-32.5 132v13h76q0 -65 12.5 -93.5
t51.5 -28.5q18 0 30.5 7t19 15.5t9.5 27t3.5 31t0.5 38.5z" />
    <glyph glyph-name="afii10096" unicode="&#x44e;" horiz-adv-x="514" 
d="M124 0h-80v500h80v-209h72v23q0 100 29.5 147.5t115.5 47.5q38 0 65 -12t40.5 -28t21 -41.5t9 -42.5t1.5 -42v-151q0 -32 -1 -49t-4.5 -45t-12.5 -43.5t-24 -32t-40.5 -24t-60.5 -7.5q-139 0 -139 158v82h-72v-231zM395 211v142q0 25 -2 41t-15.5 32.5t-38.5 16.5
q-36 0 -47.5 -26.5t-11.5 -86.5v-140q0 -80 9 -108.5t46 -28.5q14 0 24.5 4.5t17 15.5t10.5 22t5.5 32.5t2 37.5t0.5 46z" />
    <glyph glyph-name="afii10097" unicode="&#x44f;" horiz-adv-x="360" 
d="M316 0h-80v221h-45q-31 0 -43 -19t-12 -62v-63q0 -77 -86 -77h-30v60q21 0 28.5 11t7.5 38v54q0 38 10 58t40 30q-50 14 -50 80v59q0 110 106 110h154v-500zM236 281v159h-45q-30 0 -42.5 -14.5t-12.5 -47.5v-34q0 -34 12.5 -48.5t42.5 -14.5h45z" />
    <glyph glyph-name="afii10071" unicode="&#x451;" horiz-adv-x="354" 
d="M318 155v-20q0 -23 -4.5 -44t-17.5 -45.5t-43 -39.5t-74 -15q-91 0 -125 67q-11 24 -14.5 50t-3.5 114v83q0 40 2 66.5t10.5 55t23 44.5t41 26.5t63.5 10.5q142 0 142 -153v-120h-202v-56q0 -32 1.5 -49t7.5 -37t20 -28.5t37 -8.5q31 0 46 20t15 69v10h75zM243 299v45
q0 33 -3 52t-17.5 35t-42.5 16q-39 0 -51 -27t-12 -88v-33h126zM294 563h-78v103h78v-103zM139 563h-78v103h78v-103z" />
    <glyph glyph-name="afii10099" unicode="&#x452;" 
d="M-8 635h52v71h79v-71h105v-60h-105v-120q37 54 101 54q29 0 50 -10.5t32 -25.5t17 -39t7 -41.5t1 -42.5v-368q0 -38 -4 -61t-17 -46t-41.5 -33t-74.5 -10q-6 0 -18 0.5t-15 0.5v66q3 0 12 -0.5t15 -0.5q43 0 53.5 17t10.5 63v339q0 29 -0.5 45t-4 35t-10 27.5t-18 15
t-29.5 6.5q-23 0 -37.5 -9.5t-20.5 -30.5t-7.5 -38.5t-1.5 -48.5v-319h-79v575h-52v60z" />
    <glyph glyph-name="afii10100" unicode="&#x453;" horiz-adv-x="275" 
d="M124 0h-80v500h224v-60h-144v-440zM260 671l-98 -108h-64l53 108h109z" />
    <glyph glyph-name="afii10101" unicode="&#x454;" horiz-adv-x="354" 
d="M117 229v-56q0 -26 0.5 -38.5t3.5 -31t9.5 -27t19 -15.5t30.5 -7q39 0 51.5 28.5t12.5 93.5h76v-13q0 -92 -32.5 -132t-113.5 -40q-92 0 -120 63q-18 38 -18 174v59q0 117 28.5 169.5t116.5 52.5q83 0 111 -40.5t28 -121.5v-18h-76v16q0 26 -1.5 41t-7.5 31.5t-19 23.5
t-35 7q-39 0 -51.5 -28.5t-12.5 -113.5v-17h137v-60h-137z" />
    <glyph glyph-name="afii10102" unicode="&#x455;" horiz-adv-x="313" 
d="M94 173v-40q0 -77 62 -77q26 0 42 17t16 43q0 21 -8 37.5t-16 25t-28 25.5l-62 54q-37 33 -53 58t-16 65q0 58 31 93t97 35q124 0 124 -128v-28h-71v16q0 76 -53 76q-20 0 -36.5 -11.5t-16.5 -43.5q0 -8 2 -15.5t6.5 -15l7.5 -12.5t11 -12.5t11 -10.5t12.5 -10.5
t11.5 -9.5l57 -47q36 -30 53 -59t17 -67q0 -68 -38.5 -104t-105.5 -36q-77 0 -109 46q-15 22 -19.5 49.5t-5.5 86.5h77z" />
    <glyph glyph-name="afii10103" unicode="&#x456;" horiz-adv-x="167" 
d="M123 588h-79v103h79v-103zM123 0h-79v500h79v-500z" />
    <glyph glyph-name="afii10104" unicode="&#x457;" horiz-adv-x="167" 
d="M123 0h-79v500h79v-500zM180 588h-78v103h78v-103zM65 588h-78v103h78v-103z" />
    <glyph glyph-name="afii10105" unicode="&#x458;" horiz-adv-x="167" 
d="M123 587h-79v104h79v-104zM123 500v-518q0 -38 -4 -61t-17 -46t-41.5 -33t-74.5 -10q-6 0 -18 0.5t-15 0.5v66q3 0 12 -0.5t15 -0.5q43 0 53.5 17t10.5 63v522h79z" />
    <glyph glyph-name="afii10106" unicode="&#x459;" horiz-adv-x="554" 
d="M74 140v360h264v-192h65q125 0 125 -151q0 -78 -30 -117.5t-95 -39.5h-145v440h-104v-296q0 -68 -26 -106.5t-98 -38.5q-5 0 -16.5 0.5t-13.5 0.5v66q2 0 10 -0.5t12 -0.5q52 0 52 75zM338 248v-188h43q38 0 51 23t13 74q0 48 -13.5 69.5t-50.5 21.5h-43z" />
    <glyph glyph-name="afii10107" unicode="&#x45a;" horiz-adv-x="547" 
d="M124 0h-80v500h80v-199h127v199h80v-198h65q66 0 95.5 -37t29.5 -111q0 -78 -29.5 -116t-95.5 -38h-145v241h-127v-241zM331 242v-182h43q38 0 51 22t13 72q0 48 -13 68t-51 20h-43z" />
    <glyph glyph-name="afii10108" unicode="&#x45b;" 
d="M-8 635h52v71h79v-71h105v-60h-105v-120q37 54 101 54q29 0 50 -10.5t32 -25.5t17 -39t7 -41.5t1 -42.5v-350h-79v317q0 29 -0.5 45t-4 35t-10 27.5t-18 15t-29.5 6.5q-23 0 -37.5 -9.5t-20.5 -30.5t-7.5 -38.5t-1.5 -48.5v-319h-79v575h-52v60z" />
    <glyph glyph-name="afii10109" unicode="&#x45c;" horiz-adv-x="362" 
d="M44 500h80v-207h36q34 0 47.5 15.5t13.5 56.5v52q0 83 86 83h27v-60q-20 0 -26.5 -10.5t-6.5 -38.5v-39q0 -38 -9.5 -58t-36.5 -31q30 -8 40.5 -28.5t10.5 -59.5v-66q0 -27 7.5 -38t28.5 -11v-60h-30q-86 0 -86 77v75q0 43 -12.5 62t-43.5 19h-46v-233h-80v500zM291 671
l-98 -108h-64l53 108h109z" />
    <glyph glyph-name="afii10110" unicode="&#x45e;" horiz-adv-x="333" 
d="M235 500h85l-98 -498q-6 -33 -10.5 -50t-16 -43t-28.5 -42q-30 -30 -95 -30h-52v69q10 -1 30 -1q16 0 25.5 1t24 6t22 18t7.5 34q0 17 -10 61l-113 475h86l79 -402zM165 570q-113 0 -113 102h68q0 -46 45 -46t45 46h68q0 -102 -113 -102z" />
    <glyph glyph-name="afii10193" unicode="&#x45f;" horiz-adv-x="372" 
d="M146 0h-102v500h80v-440h124v440h80v-500h-102v-138h-80v138z" />
    <glyph glyph-name="afii10050" unicode="&#x490;" 
d="M361 627h-222v-627h-89v706h222v140h89v-219z" />
    <glyph glyph-name="afii10098" unicode="&#x491;" horiz-adv-x="275" 
d="M189 621h79v-181h-144v-440h-80v500h145v121z" />
    <glyph glyph-name="Wgrave" unicode="&#x1e80;" horiz-adv-x="625" 
d="M625 706l-119 -706h-116l-77 585l-80 -585h-118l-115 706h87l87 -619l83 619h113l81 -619l88 619h86zM373 764h-65l-97 107h109z" />
    <glyph glyph-name="wgrave" unicode="&#x1e81;" horiz-adv-x="521" 
d="M521 500l-98 -500h-96l-68 421l-69 -421h-98l-92 500h87l53 -428l65 428h108l65 -422l59 422h84zM314 563h-65l-97 108h109z" />
    <glyph glyph-name="Wacute" unicode="&#x1e82;" horiz-adv-x="625" 
d="M625 706l-119 -706h-116l-77 585l-80 -585h-118l-115 706h87l87 -619l83 619h113l81 -619l88 619h86zM431 871l-98 -107h-64l53 107h109z" />
    <glyph glyph-name="wacute" unicode="&#x1e83;" horiz-adv-x="521" 
d="M521 500l-98 -500h-96l-68 421l-69 -421h-98l-92 500h87l53 -428l65 428h108l65 -422l59 422h84zM371 671l-98 -108h-64l53 108h109z" />
    <glyph glyph-name="Wdieresis" unicode="&#x1e84;" horiz-adv-x="625" 
d="M625 706l-119 -706h-116l-77 585l-80 -585h-118l-115 706h87l87 -619l83 619h113l81 -619l88 619h86zM443 764h-83v107h83v-107zM265 764h-83v107h83v-107z" />
    <glyph glyph-name="wdieresis" unicode="&#x1e85;" horiz-adv-x="521" 
d="M521 500l-98 -500h-96l-68 421l-69 -421h-98l-92 500h87l53 -428l65 428h108l65 -422l59 422h84zM377 563h-78v103h78v-103zM222 563h-78v103h78v-103z" />
    <glyph glyph-name="Ygrave" unicode="&#x1ef2;" horiz-adv-x="396" 
d="M396 706l-155 -428v-278h-91v278l-150 428h93l105 -353l105 353h93zM249 764h-65l-97 107h109z" />
    <glyph glyph-name="ygrave" unicode="&#x1ef3;" horiz-adv-x="333" 
d="M235 500h85l-98 -498q-6 -33 -10.5 -50t-16 -43t-28.5 -42q-30 -30 -95 -30h-52v69q10 -1 30 -1q16 0 25.5 1t24 6t22 18t7.5 34q0 17 -10 61l-113 475h86l79 -402zM217 563h-65l-97 108h109z" />
    <glyph glyph-name="endash" unicode="&#x2013;" horiz-adv-x="371" 
d="M346 253h-321v78h321v-78z" />
    <glyph glyph-name="emdash" unicode="&#x2014;" horiz-adv-x="567" 
d="M542 253h-517v78h517v-78z" />
    <glyph glyph-name="quoteleft" unicode="&#x2018;" horiz-adv-x="167" 
d="M126 452h-85v121q0 56 18 89.5t67 43.5v-51q-38 -10 -38 -59v-26h38v-118z" />
    <glyph glyph-name="quoteright" unicode="&#x2019;" horiz-adv-x="167" 
d="M41 706h85v-121q0 -57 -17.5 -90t-67.5 -43v51q22 8 29.5 24t7.5 43v18h-37v118z" />
    <glyph glyph-name="quotesinglbase" unicode="&#x201a;" horiz-adv-x="167" 
d="M41 118h85v-122q0 -56 -18 -89.5t-67 -43.5v52q38 9 38 67v18h-38v118z" />
    <glyph glyph-name="quotedblleft" unicode="&#x201c;" horiz-adv-x="313" 
d="M126 452h-85v121q0 56 18 89.5t67 43.5v-51q-38 -10 -38 -59v-26h38v-118zM272 452h-86v121q0 56 18.5 89.5t67.5 43.5v-51q-38 -10 -38 -59v-26h38v-118z" />
    <glyph glyph-name="quotedblright" unicode="&#x201d;" horiz-adv-x="313" 
d="M41 706h85v-121q0 -57 -17.5 -90t-67.5 -43v51q22 8 29.5 24t7.5 43v18h-37v118zM187 706h85v-121q0 -57 -17.5 -90t-67.5 -43v51q22 8 29.5 24t7.5 43v18h-37v118z" />
    <glyph glyph-name="quotedblbase" unicode="&#x201e;" horiz-adv-x="313" 
d="M41 118h85v-122q0 -57 -17.5 -90t-67.5 -43v51q38 14 38 67v19h-38v118zM187 118h85v-122q0 -57 -17.5 -90t-67.5 -43v51q38 14 38 67v19h-38v118z" />
    <glyph glyph-name="dagger" unicode="&#x2020;" 
d="M351 394h-122v-507h-79v507h-126v73h126v239h79v-239h122v-73z" />
    <glyph glyph-name="daggerdbl" unicode="&#x2021;" 
d="M351 119h-123v-232h-78v232h-126v73h126v236h-126v72h126v206h78v-206h123v-72h-123v-236h123v-73z" />
    <glyph glyph-name="bullet" unicode="&#x2022;" horiz-adv-x="341" 
d="M263 232h-186v249h186v-249z" />
    <glyph glyph-name="ellipsis" unicode="&#x2026;" horiz-adv-x="1000" 
d="M875 0h-84v100h84v-100zM542 0h-84v100h84v-100zM209 0h-84v100h84v-100z" />
    <glyph glyph-name="perthousand" unicode="&#x2030;" horiz-adv-x="875" 
d="M509 706l-344 -706h-49l347 706h46zM229 577v-190q0 -127 -102 -127q-36 0 -58.5 10.5t-32 33t-12 41.5t-2.5 51v181q0 20 0.5 32.5t6 34.5t15.5 34.5t31 23t50 10.5q28 0 48 -9t30.5 -22t16.5 -32.5t7.5 -35t1.5 -36.5zM161 398v174q0 25 -0.5 35.5t-4 22.5t-11 16
t-20.5 4q-24 0 -30.5 -16.5t-6.5 -56.5v-174q0 -36 1.5 -49.5t9 -23t25.5 -9.5q25 0 31 14.5t6 62.5zM604 312v-190q0 -127 -102 -127q-36 0 -58.5 10.5t-32 33t-12 41.5t-2.5 51v181q0 20 0.5 32.5t6 34.5t15.5 34.5t31 23t50 10.5q28 0 48 -9t30.5 -22t16.5 -32.5t7.5 -35
t1.5 -36.5zM536 133v174q0 25 -0.5 35.5t-4 22.5t-11 16t-20.5 4q-24 0 -30.5 -16.5t-6.5 -56.5v-174q0 -36 1.5 -49.5t9 -23t25.5 -9.5q25 0 31 14.5t6 62.5zM854 312v-190q0 -127 -102 -127q-36 0 -58.5 10.5t-32 33t-12 41.5t-2.5 51v181q0 20 0.5 32.5t6 34.5t15.5 34.5
t31 23t50 10.5q28 0 48 -9t30.5 -22t16.5 -32.5t7.5 -35t1.5 -36.5zM786 133v174q0 25 -0.5 35.5t-4 22.5t-11 16t-20.5 4q-24 0 -30.5 -16.5t-6.5 -56.5v-174q0 -36 1.5 -49.5t9 -23t25.5 -9.5q25 0 31 14.5t6 62.5z" />
    <glyph glyph-name="guilsinglleft" unicode="&#x2039;" horiz-adv-x="187" 
d="M160 90l-140 158v86l140 156v-116l-74 -83l74 -84v-117z" />
    <glyph glyph-name="guilsinglright" unicode="&#x203a;" horiz-adv-x="187" 
d="M167 248l-139 -158v117l74 84l-74 83v116l139 -156v-86z" />
    <glyph glyph-name="fraction" unicode="&#x2044;" horiz-adv-x="125" 
d="M259 706l-344 -706h-49l348 706h45z" />
    <glyph glyph-name="zero.superior" unicode="&#x2070;" horiz-adv-x="250" 
d="M226 732v-209q0 -21 -2.5 -36.5t-11.5 -35t-31 -30.5t-55 -11q-103 0 -103 108v221q0 22 2.5 39t12 38.5t32.5 33.5t58 12q28 0 47 -9t29 -20.5t15 -32t6 -34t1 -34.5zM163 551v179q0 41 -6.5 56.5t-31.5 15.5q-37 0 -37 -59v-207q0 -34 8 -49.5t30 -15.5q23 0 30 17
t7 63z" />
    <glyph glyph-name="four.superior" unicode="&#x2074;" horiz-adv-x="250" 
d="M233 511h-38v-96h-64v96h-111v67l88 279h87v-287h38v-59zM74 570h57l5 211z" />
    <glyph glyph-name="five.superior" unicode="&#x2075;" horiz-adv-x="250" 
d="M220 855v-60h-123l-4 -94q25 19 53 19q79 0 79 -96v-99q0 -115 -106 -115q-101 0 -101 110v24h62v-21q0 -53 39 -53q40 0 40 60v78q0 56 -34 56q-31 0 -34 -47h-60q5 159 8 238h181z" />
    <glyph glyph-name="six.superior" unicode="&#x2076;" horiz-adv-x="250" 
d="M227 751h-65v18q0 35 -34 35q-23 0 -31.5 -12.5t-8.5 -46.5v-66q24 25 60 25q41 0 63 -26t22 -75v-90q0 -103 -107 -103q-47 0 -74.5 23.5t-27.5 82.5v230q0 63 24.5 89.5t83.5 26.5q95 0 95 -83v-28zM167 524v62q0 36 -8.5 50.5t-30.5 14.5q-40 0 -40 -53v-65
q0 -40 8.5 -54t31.5 -14q39 0 39 59z" />
    <glyph glyph-name="seven.superior" unicode="&#x2077;" horiz-adv-x="250" 
d="M14 856h222v-40q-45 -80 -69.5 -178.5t-24.5 -191.5v-31h-75q4 114 23 190.5t69 190.5h-145v60z" />
    <glyph glyph-name="eight.superior" unicode="&#x2078;" horiz-adv-x="250" 
d="M226 773v-49q0 -32 -10.5 -47.5t-40.5 -26.5q29 -8 42 -25t13 -49v-64q0 -102 -105 -102q-104 0 -104 89v76q0 56 53 75q-27 11 -38 26.5t-11 44.5v53q0 88 103 88q51 0 74.5 -21.5t23.5 -67.5zM163 728v35q0 22 -8.5 31.5t-28.5 9.5q-39 0 -39 -41v-33q0 -29 8.5 -40
t30.5 -11q20 0 28.5 11t8.5 38zM164 522v39q0 28 -9 40t-31 12q-41 0 -41 -53v-36q0 -51 41 -51q22 0 31 11.5t9 37.5z" />
    <glyph glyph-name="nine.superior" unicode="&#x2079;" horiz-adv-x="250" 
d="M22 521h65v-18q0 -34 34 -34q23 0 31.5 12.5t8.5 45.5v66q-25 -25 -60 -25q-41 0 -63 26t-22 75v91q0 102 107 102q102 0 102 -109v-226q0 -61 -23.5 -89t-84.5 -28q-95 0 -95 84v27zM82 754v-68q0 -36 8.5 -50.5t30.5 -14.5q40 0 40 52v66q0 40 -8.5 54t-31.5 14
q-39 0 -39 -53z" />
    <glyph glyph-name="parenleft.superior" unicode="&#x207d;" horiz-adv-x="189" 
d="M183 363l-32 -22q-108 135 -108 279q0 132 103 274l34 -24q-71 -102 -71 -245q0 -160 74 -262z" />
    <glyph glyph-name="parenright.superior" unicode="&#x207e;" horiz-adv-x="189" 
d="M6 872l32 22q108 -135 108 -279q0 -132 -103 -274l-34 24q71 102 71 245q0 160 -74 262z" />
    <glyph glyph-name="zero.inferior" unicode="&#x2080;" horiz-adv-x="250" 
d="M226 167v-209q0 -21 -2.5 -36.5t-11.5 -35t-31 -30.5t-55 -11q-103 0 -103 108v221q0 22 2.5 39t12 38.5t32.5 33.5t58 12q28 0 47 -9t29 -20.5t15 -32t6 -34t1 -34.5zM163 -14v179q0 41 -6.5 56.5t-31.5 15.5q-37 0 -37 -59v-207q0 -34 8 -49.5t30 -15.5q23 0 30 17
t7 63z" />
    <glyph glyph-name="one.inferior" unicode="&#x2081;" horiz-adv-x="250" 
d="M164 -150h-68v335h-70v55h19q60 0 60 46v5h59v-441z" />
    <glyph glyph-name="two.inferior" unicode="&#x2082;" horiz-adv-x="250" 
d="M230 -150h-203v60l89 151q3 6 10.5 18.5t10 16t7.5 13t6.5 13.5t4 12t3 14.5t1.5 15.5t1 19q0 51 -34 51q-31 0 -31 -47v-62h-63v60q0 112 96 112q42 0 69 -28.5t27 -90.5q0 -64 -40 -131l-83 -137h129v-60z" />
    <glyph glyph-name="three.inferior" unicode="&#x2083;" horiz-adv-x="250" 
d="M20 -8h63v-40q0 -46 34 -46q25 0 32.5 15.5t7.5 49.5v20q0 31 -8.5 46t-39.5 15l-25 -1v62q15 -1 22 -1q23 0 34.5 11t11.5 44q0 26 -1 37.5t-8.5 21.5t-22.5 10q-30 0 -30 -51v-29h-63v39q0 102 95 102q96 0 96 -109q0 -51 -7.5 -71.5t-27.5 -32.5q25 -10 33 -38t8 -92
q0 -46 -25.5 -77.5t-73.5 -31.5q-105 0 -105 100v47z" />
    <glyph glyph-name="four.inferior" unicode="&#x2084;" horiz-adv-x="250" 
d="M233 -54h-38v-96h-64v96h-111v67l88 279h87v-287h38v-59zM74 5h57l5 211z" />
    <glyph glyph-name="five.inferior" unicode="&#x2085;" horiz-adv-x="250" 
d="M220 290v-60h-123l-4 -94q25 19 53 19q79 0 79 -96v-99q0 -115 -106 -115q-101 0 -101 110v24h62v-21q0 -53 39 -53q40 0 40 60v78q0 56 -34 56q-31 0 -34 -47h-60q5 159 8 238h181z" />
    <glyph glyph-name="six.inferior" unicode="&#x2086;" horiz-adv-x="250" 
d="M227 186h-65v18q0 35 -34 35q-23 0 -31.5 -12.5t-8.5 -46.5v-66q24 25 60 25q41 0 63 -26t22 -75v-90q0 -103 -107 -103q-47 0 -74.5 23.5t-27.5 82.5v230q0 63 24.5 89.5t83.5 26.5q95 0 95 -83v-28zM167 -41v62q0 36 -8.5 50.5t-30.5 14.5q-40 0 -40 -53v-65
q0 -40 8.5 -54t31.5 -14q39 0 39 59z" />
    <glyph glyph-name="seven.inferior" unicode="&#x2087;" horiz-adv-x="250" 
d="M14 291h222v-40q-45 -80 -69.5 -178.5t-24.5 -191.5v-31h-75q4 114 23 190.5t69 190.5h-145v60z" />
    <glyph glyph-name="eight.inferior" unicode="&#x2088;" horiz-adv-x="250" 
d="M226 208v-49q0 -32 -10.5 -47.5t-40.5 -26.5q29 -8 42 -25t13 -49v-64q0 -102 -105 -102q-104 0 -104 89v76q0 56 53 75q-27 11 -38 26.5t-11 44.5v53q0 88 103 88q51 0 74.5 -21.5t23.5 -67.5zM163 163v35q0 22 -8.5 31.5t-28.5 9.5q-39 0 -39 -41v-33q0 -29 8.5 -40
t30.5 -11q20 0 28.5 11t8.5 38zM164 -43v39q0 28 -9 40t-31 12q-41 0 -41 -53v-36q0 -51 41 -51q22 0 31 11.5t9 37.5z" />
    <glyph glyph-name="nine.inferior" unicode="&#x2089;" horiz-adv-x="250" 
d="M22 -44h65v-18q0 -34 34 -34q23 0 31.5 12.5t8.5 45.5v66q-25 -25 -60 -25q-41 0 -63 26t-22 75v91q0 102 107 102q102 0 102 -109v-226q0 -61 -23.5 -89t-84.5 -28q-95 0 -95 84v27zM82 189v-68q0 -36 8.5 -50.5t30.5 -14.5q40 0 40 52v66q0 40 -8.5 54t-31.5 14
q-39 0 -39 -53z" />
    <glyph glyph-name="parenleft.inferior" unicode="&#x208d;" horiz-adv-x="189" 
d="M183 -202l-32 -22q-108 135 -108 279q0 132 103 274l34 -24q-71 -102 -71 -245q0 -160 74 -262z" />
    <glyph glyph-name="parenright.inferior" unicode="&#x208e;" horiz-adv-x="189" 
d="M6 307l32 22q108 -135 108 -279q0 -132 -103 -274l-34 24q71 102 71 245q0 160 -74 262z" />
    <glyph glyph-name="Euro" unicode="&#x20ac;" horiz-adv-x="434" 
d="M403 672l-23 -88q-31 30 -57 44.5t-62 14.5q-32 0 -52.5 -11t-29.5 -32.5t-12 -41.5t-3 -50v-67h190l-13 -57h-177v-49h167l-12 -57h-156v-47q0 -99 15 -127q21 -40 78 -40q83 0 143 62v-97q-69 -39 -162 -39q-51 0 -89 23.5t-56 69.5q-16 43 -16 119v76h-52l12 57h40v49
h-51l11 57h41v55q0 109 37 158q48 63 148 63q81 0 141 -45z" />
    <glyph glyph-name="afii61289" unicode="&#x2113;" horiz-adv-x="418" 
d="M352 152l51 -39q-37 -64 -77 -93t-92 -29q-65 0 -101.5 45t-36.5 129l-34 -31l-39 58l73 63v218q0 105 12 149q13 42 47.5 67.5t78.5 25.5q56 0 86.5 -37t30.5 -104q0 -56 -23 -120q-19 -53 -48.5 -98t-101.5 -127v-22q0 -76 17.5 -110t55.5 -34q28 0 51 19t50 70z
M176 321q100 140 100 251q0 74 -45 74q-29 0 -42 -28t-13 -106v-191z" />
    <glyph glyph-name="afii61352" unicode="&#x2116;" horiz-adv-x="681" 
d="M387 0h-124l-138 612q8 -419 12 -612h-87v706h121l143 -618q-10 525 -12 618h85v-706zM660 597v-234q0 -16 -0.5 -25.5t-6 -26.5t-16 -26.5t-31.5 -17.5t-51 -8q-31 0 -52 8.5t-31.5 19t-15.5 32t-6 35t-1 41.5v195q0 21 0.5 33t6 31.5t16 30t32 19t52.5 8.5
q30 0 51 -8.5t31 -18.5t15.5 -28.5t6 -29.5t0.5 -30zM515 605v-232q0 -14 0.5 -21t4 -16t12.5 -13t23 -4t22.5 3.5t12 12.5t4 16t0.5 22v232q0 17 -1.5 25t-10.5 16t-27 8q-14 0 -22.5 -3.5t-12 -11t-4.5 -14.5t-1 -20zM660 195v-71h-211v71h211z" />
    <glyph glyph-name="trademark" unicode="&#x2122;" horiz-adv-x="557" 
d="M511 374h-58l7 300l-64 -300h-61l-63 296q6 -249 6 -296h-55v332h89l54 -264l54 264h91v-332zM193 658h-66v-284h-58v284h-64v48h188v-48z" />
    <glyph glyph-name="Omega" unicode="&#x2126;" horiz-adv-x="480" 
d="M429 0h-166v71q33 29 47 83.5t14 173.5v195q0 65 -16 93.5t-67 28.5q-48 0 -68 -29q-11 -17 -13.5 -32.5t-2.5 -62.5v-193q0 -119 13 -172.5t48 -84.5v-71h-167v70h102q-21 16 -30 28t-20 36q-34 78 -34 210v180q0 57 7.5 87.5t27.5 53.5q45 51 137 51q93 0 135 -49
q22 -25 29 -53t7 -90v-179q0 -222 -85 -275h102v-70z" />
    <glyph glyph-name="estimated" unicode="&#x212e;" horiz-adv-x="736" 
d="M703 338h-574q0 -134 70 -203.5t185 -69.5q162 0 235 157l82 -14q-85 -212 -321 -212q-157 0 -248.5 96.5t-91.5 260.5q0 168 89.5 263.5t247.5 95.5q157 0 241.5 -93.5t84.5 -247.5v-33zM131 405h478q-6 115 -65.5 176.5t-167.5 61.5q-107 0 -171 -60t-74 -178z" />
    <glyph glyph-name="onethird" unicode="&#x2153;" horiz-adv-x="625" 
d="M502 706l-344 -706h-49l348 706h45zM188 265h-68v335h-70v55h19q60 0 60 46v5h59v-441zM388 142h63v-40q0 -46 34 -46q25 0 32.5 15.5t7.5 49.5v20q0 31 -8.5 46t-39.5 15l-25 -1v62q15 -1 22 -1q23 0 34.5 11t11.5 44q0 26 -1 37.5t-8.5 21.5t-22.5 10q-30 0 -30 -51
v-29h-63v39q0 102 95 102q96 0 96 -109q0 -51 -7.5 -71.5t-27.5 -32.5q25 -10 33 -38t8 -92q0 -46 -25.5 -77.5t-73.5 -31.5q-105 0 -105 100v47z" />
    <glyph glyph-name="twothirds" unicode="&#x2154;" horiz-adv-x="625" 
d="M515 706l-344 -706h-49l348 706h45zM396 142h63v-40q0 -46 34 -46q25 0 32.5 15.5t7.5 49.5v20q0 31 -8.5 46t-39.5 15l-25 -1v62q15 -1 22 -1q23 0 34.5 11t11.5 44q0 26 -1 37.5t-8.5 21.5t-22.5 10q-30 0 -30 -51v-29h-63v39q0 102 95 102q96 0 96 -109
q0 -51 -7.5 -71.5t-27.5 -32.5q25 -10 33 -38t8 -92q0 -46 -25.5 -77.5t-73.5 -31.5q-105 0 -105 100v47zM230 265h-203v60l89 151q3 6 10.5 18.5t10 16t7.5 13t6.5 13.5t4 12t3 14.5t1.5 15.5t1 19q0 51 -34 51q-31 0 -31 -47v-62h-63v60q0 112 96 112q42 0 69 -28.5
t27 -90.5q0 -63 -40 -131l-83 -137h129v-60z" />
    <glyph glyph-name="oneeighth" unicode="&#x215b;" horiz-adv-x="625" 
d="M483 706l-344 -706h-49l348 706h45zM169 265h-68v335h-70v55h19q60 0 60 46v5h59v-441zM589 358v-49q0 -32 -10.5 -47.5t-40.5 -26.5q29 -8 42 -25t13 -49v-64q0 -102 -105 -102q-104 0 -104 89v76q0 56 53 75q-27 11 -38 26.5t-11 44.5v53q0 88 103 88q51 0 74.5 -21.5
t23.5 -67.5zM526 313v35q0 22 -8.5 31.5t-28.5 9.5q-39 0 -39 -41v-33q0 -29 8.5 -40t30.5 -11q20 0 28.5 11t8.5 38zM527 107v39q0 28 -9 40t-31 12q-41 0 -41 -53v-36q0 -51 41 -51q22 0 31 11.5t9 37.5z" />
    <glyph glyph-name="threeeighths" unicode="&#x215c;" horiz-adv-x="625" 
d="M504 706l-344 -706h-49l348 706h45zM597 358v-49q0 -32 -10.5 -47.5t-40.5 -26.5q29 -8 42 -25t13 -49v-64q0 -102 -105 -102q-104 0 -104 89v76q0 56 53 75q-27 11 -38 26.5t-11 44.5v53q0 88 103 88q51 0 74.5 -21.5t23.5 -67.5zM534 313v35q0 22 -8.5 31.5t-28.5 9.5
q-39 0 -39 -41v-33q0 -29 8.5 -40t30.5 -11q20 0 28.5 11t8.5 38zM535 107v39q0 28 -9 40t-31 12q-41 0 -41 -53v-36q0 -51 41 -51q22 0 31 11.5t9 37.5zM26 407h63v-40q0 -46 34 -46q25 0 32.5 15.5t7.5 49.5v20q0 31 -8.5 46t-39.5 15l-25 -1v62q15 -1 22 -1q23 0 34.5 11
t11.5 44q0 26 -1 37.5t-8.5 21.5t-22.5 10q-30 0 -30 -51v-29h-63v39q0 102 95 102q96 0 96 -109q0 -51 -7.5 -71.5t-27.5 -32.5q25 -10 33 -38t8 -92q0 -46 -25.5 -77.5t-73.5 -31.5q-105 0 -105 100v47z" />
    <glyph glyph-name="fiveeighths" unicode="&#x215d;" horiz-adv-x="625" 
d="M509 706l-344 -706h-49l348 706h45zM599 358v-49q0 -32 -10.5 -47.5t-40.5 -26.5q29 -8 42 -25t13 -49v-64q0 -102 -105 -102q-104 0 -104 89v76q0 56 53 75q-27 11 -38 26.5t-11 44.5v53q0 88 103 88q51 0 74.5 -21.5t23.5 -67.5zM536 313v35q0 22 -8.5 31.5t-28.5 9.5
q-39 0 -39 -41v-33q0 -29 8.5 -40t30.5 -11q20 0 28.5 11t8.5 38zM537 107v39q0 28 -9 40t-31 12q-41 0 -41 -53v-36q0 -51 41 -51q22 0 31 11.5t9 37.5zM228 705v-60h-123l-4 -94q25 19 53 19q79 0 79 -96v-99q0 -115 -106 -115q-101 0 -101 110v24h62v-21q0 -53 39 -53
q40 0 40 60v78q0 56 -34 56q-31 0 -34 -47h-60q5 159 8 238h181z" />
    <glyph glyph-name="seveneighths" unicode="&#x215e;" horiz-adv-x="625" 
d="M483 706l-344 -706h-49l348 706h45zM580 358v-49q0 -32 -10.5 -47.5t-40.5 -26.5q29 -8 42 -25t13 -49v-64q0 -102 -105 -102q-104 0 -104 89v76q0 56 53 75q-27 11 -38 26.5t-11 44.5v53q0 88 103 88q51 0 74.5 -21.5t23.5 -67.5zM517 313v35q0 22 -8.5 31.5t-28.5 9.5
q-39 0 -39 -41v-33q0 -29 8.5 -40t30.5 -11q20 0 28.5 11t8.5 38zM518 107v39q0 28 -9 40t-31 12q-41 0 -41 -53v-36q0 -51 41 -51q22 0 31 11.5t9 37.5zM34 706h222v-40q-45 -80 -69.5 -178.5t-24.5 -191.5v-31h-75q4 114 23 190.5t69 190.5h-145v60z" />
    <glyph glyph-name="partialdiff" unicode="&#x2202;" horiz-adv-x="444" 
d="M139 633l-7 70q43 12 83 12q97 0 141 -77.5t44 -247.5q0 -401 -185 -401q-79 0 -127.5 59.5t-48.5 157.5q0 101 45.5 161.5t121.5 60.5q64 0 112 -51q1 13 1 28q0 124 -27.5 181.5t-86.5 57.5q-25 0 -66 -11zM310 299q-43 61 -97 61q-42 0 -66.5 -41t-24.5 -111
q0 -68 25 -109.5t66 -41.5q48 0 69 55q11 26 19.5 83t8.5 104z" />
    <glyph glyph-name="Delta" unicode="&#x2206;" horiz-adv-x="445" 
d="M442 0h-439l173 706h97zM333 78l-110 516l-110 -516h220z" />
    <glyph glyph-name="product" unicode="&#x220f;" horiz-adv-x="491" 
d="M417 -122h-85v750h-173v-750h-86v828h344v-828z" />
    <glyph glyph-name="summation" unicode="&#x2211;" horiz-adv-x="427" 
d="M380 -122h-338v73l192 350l-192 332v73h338v-79h-241l189 -322l-195 -348h247v-79z" />
    <glyph glyph-name="minus" unicode="&#x2212;" horiz-adv-x="559" 
d="M486 260h-414v73h414v-73z" />
    <glyph glyph-name="uni2215" unicode="&#x2215;" horiz-adv-x="125" 
d="M259 706l-344 -706h-49l348 706h45z" />
    <glyph glyph-name="uni2219" unicode="&#x2219;" horiz-adv-x="167" 
d="M126 229h-85v118h85v-118z" />
    <glyph glyph-name="radical" unicode="&#x221a;" horiz-adv-x="559" 
d="M507 706l-189 -891h-79l-108 298l-58 -23l-27 66l137 52l89 -258l151 756h84z" />
    <glyph glyph-name="infinity" unicode="&#x221e;" horiz-adv-x="559" 
d="M284 356q35 55 65.5 78.5t72.5 23.5q55 0 88 -42.5t33 -112.5q0 -77 -36 -124.5t-95 -47.5q-41 0 -71.5 21.5t-65.5 78.5q-31 -40 -45 -56t-37.5 -29.5t-51.5 -13.5q-57 0 -90.5 43t-33.5 114q0 75 38 122.5t97 47.5q40 0 69 -23t63 -80zM329 308l-8 -13
q30 -54 47.5 -72.5t40.5 -18.5q26 0 42 25.5t16 67.5q0 39 -15 63.5t-40 24.5q-21 0 -39 -16t-44 -61zM236 294q-31 54 -48.5 73t-39.5 19q-26 0 -42 -26t-16 -68q0 -39 15 -63.5t39 -24.5q21 0 39 17.5t53 72.5z" />
    <glyph glyph-name="integral" unicode="&#x222b;" horiz-adv-x="271" 
d="M256 705v-80q-28 19 -47 19q-16 0 -24 -10.5t-9.5 -22t-1.5 -33.5v-580q0 -48 -3 -75t-14 -52.5t-34 -36.5t-61 -11q-31 0 -60 12v82q24 -17 45 -17q27 0 34.5 19.5t7.5 62.5v553q0 105 17.5 144t86.5 39q27 0 63 -13z" />
    <glyph glyph-name="approxequal" unicode="&#x2248;" horiz-adv-x="565" 
d="M458 449l47 -58q-59 -75 -126 -75q-36 0 -92 23l-26 11q-45 19 -72 19q-24 0 -41 -11t-40 -43l-48 59q37 43 63 59t66 16q29 0 72 -17l55 -22q39 -16 61 -16q37 0 81 55zM458 286l47 -58q-59 -75 -126 -75q-36 0 -92 23l-26 11q-45 19 -72 19q-24 0 -41 -11t-40 -43
l-48 59q37 43 63 59t66 16q29 0 72 -17l55 -22q39 -16 61 -16q37 0 81 55z" />
    <glyph glyph-name="notequal" unicode="&#x2260;" horiz-adv-x="559" 
d="M474 180h-212l-61 -139h-68l60 139h-108v73h138l43 97h-181v72h211l56 129h69l-57 -129h110v-72h-139l-43 -97h182v-73z" />
    <glyph glyph-name="lessequal" unicode="&#x2264;" horiz-adv-x="559" 
d="M449 111l-359 194v78l359 195v-84l-277 -147l277 -147v-89zM449 0h-359v74h359v-74z" />
    <glyph glyph-name="greaterequal" unicode="&#x2265;" horiz-adv-x="559" 
d="M468 306l-359 -195v84l278 147l-278 147v89l359 -194v-78zM469 0h-360v74h360v-74z" />
    <glyph glyph-name="dotmath" unicode="&#x22c5;" horiz-adv-x="167" 
d="M126 209h-85v118h85v-118z" />
    <glyph glyph-name="lozenge" unicode="&#x25ca;" horiz-adv-x="559" 
d="M478 355l-163 -355h-77l-157 356l158 350h77zM391 357l-113 267l-110 -269l111 -273z" />
    <glyph glyph-name="uniF6C1" unicode="&#xf6c1;" horiz-adv-x="396" 
d="M357 498h-78v45q0 45 -15 72t-61 27q-74 0 -74 -85q0 -13 1.5 -24t6.5 -21.5t8.5 -17.5t12.5 -17.5t12 -14.5t15 -16t14 -15l111 -118q61 -65 61 -153q0 -97 -64 -140q-44 -30 -106 -30l-20 -58q24 10 45 10q29 0 49 -17.5t20 -46.5q0 -30 -28 -59.5t-81 -29.5
q-35 0 -78 20l13 24q37 -14 55 -14q21 0 39.5 14t18.5 36q0 16 -11 27t-28 11q-13 0 -30 -13l-21 8l30 89q-147 13 -147 175v78h83v-65q0 -53 18 -83.5t69 -30.5q41 0 65 23.5t24 64.5q0 27 -10 50.5t-20.5 36t-35.5 38.5l-95 98q-45 47 -63 83t-18 94q0 164 164 164
q119 0 143 -92q6 -24 6 -82v-45z" />
    <glyph glyph-name="uniF6C2" unicode="&#xf6c2;" horiz-adv-x="313" 
d="M94 173v-40q0 -77 62 -77q26 0 42 17t16 43q0 21 -8 37.5t-16 25t-28 25.5l-62 54q-37 33 -53 58t-16 65q0 58 31 93t97 35q124 0 124 -128v-28h-71v16q0 76 -53 76q-20 0 -36.5 -11.5t-16.5 -43.5q0 -8 2 -15.5t6.5 -15l7.5 -12.5t11 -12.5t11 -10.5t12.5 -10.5
t11.5 -9.5l57 -47q36 -30 53 -59t17 -67q0 -68 -37.5 -103.5t-104.5 -36.5l-21 -59q24 10 45 10q29 0 49 -17.5t20 -46.5q0 -20 -13 -42q-31 -47 -96 -47q-35 0 -78 20l13 24q37 -14 55 -14q21 0 39.5 14t18.5 36q0 16 -11 27t-28 11q-13 0 -30 -13l-21 8l30 91
q-59 6 -83 44q-15 22 -19.5 49.5t-5.5 86.5h77z" />
    <glyph glyph-name="acute.cap" horiz-adv-x="229" 
d="M195 871l-98 -107h-64l53 107h109z" />
    <glyph glyph-name="breve.cap" horiz-adv-x="229" 
d="M167 871h48q0 -56 -29 -85.5t-70 -29.5q-43 0 -72.5 27t-29.5 88h48q0 -10 2 -20.5t14.5 -24t35.5 -13.5q22 0 35 13t15.5 24t2.5 21z" />
    <glyph glyph-name="caron.cap" horiz-adv-x="229" 
d="M247 871l-101 -107h-65l-99 107h79l53 -63l58 63h75z" />
    <glyph glyph-name="cedilla.cap" horiz-adv-x="229" 
d="M94 11h28l-28 -79q24 10 45 10q29 0 49 -17.5t20 -46.5q0 -30 -28 -59.5t-81 -29.5q-35 0 -78 20l13 24q37 -14 55 -14q21 0 39.5 14t18.5 36q0 16 -11 27t-28 11q-13 0 -30 -13l-21 8z" />
    <glyph glyph-name="circumflex.cap" horiz-adv-x="229" 
d="M247 764h-80l-53 60l-58 -60h-73l101 107h65z" />
    <glyph glyph-name="commaaccent" horiz-adv-x="229" 
d="M79 -30h71v-42q0 -35 -16.5 -54t-54.5 -25v26q30 8 30 34h-30v61z" />
    <glyph glyph-name="dieresis.cap" horiz-adv-x="229" 
d="M245 764h-83v107h83v-107zM67 764h-83v107h83v-107z" />
    <glyph glyph-name="dotaccent.cap" horiz-adv-x="229" 
d="M154 764h-80v107h80v-107z" />
    <glyph glyph-name="grave.cap" horiz-adv-x="229" 
d="M195 764h-65l-97 107h109z" />
    <glyph glyph-name="hungarumlaut.cap" horiz-adv-x="229" 
d="M124 871l-94 -107h-57l53 107h98zM256 871l-94 -107h-57l53 107h98z" />
    <glyph glyph-name="macron.cap" horiz-adv-x="229" 
d="M226 773h-223v64h223v-64z" />
    <glyph glyph-name="ring.cap" horiz-adv-x="229" 
d="M195 828q0 -33 -23.5 -56.5t-57.5 -23.5q-33 0 -56.5 23.5t-23.5 56.5t24 56.5t57 23.5t56.5 -23.5t23.5 -56.5zM151 829q0 15 -10.5 25.5t-26.5 10.5q-14 0 -25 -10t-11 -25t11 -26.5t26 -11.5t25.5 10.5t10.5 26.5z" />
    <glyph glyph-name="tilde.cap" horiz-adv-x="229" 
d="M205 858h36q-9 -89 -75 -89q-21 0 -61 15.5t-53 15.5q-10 0 -16 -5t-8 -10t-4 -16h-36q0 44 28 70q21 20 48 20q26 0 63.5 -15.5t50.5 -15.5q27 0 27 30z" />
    <glyph glyph-name="caron.alt" horiz-adv-x="229" 
d="M75 706h78v-61q0 -53 -15 -80.5t-63 -36.5v35q24 6 31 21.5t7 42.5h-38v79z" />
    <glyph glyph-name="zero.tab" 
d="M346 522v-309q0 -119 -26 -160q-39 -62 -130 -62q-82 0 -124 45q-38 41 -38 171v300q0 73 11.5 109.5t35.5 59.5q40 39 112 39q71 0 110 -38q25 -24 37 -57.5t12 -97.5zM258 350v171q0 63 -14.5 89t-55.5 26q-25 0 -41 -10t-22.5 -29.5t-8 -34.5t-1.5 -39v-332
q0 -66 13 -94t58 -28q46 0 59 26t13 79v176z" />
    <glyph glyph-name="one.tab" 
d="M242 0h-88v554h-117v67q68 0 99 17t32 68h74v-706z" />
    <glyph glyph-name="two.tab" 
d="M343 0h-309v85l146 247q46 78 58.5 114t12.5 96q0 47 -15 70t-51 23q-62 0 -62 -93v-88h-81v98q0 163 142 163q43 0 74 -16.5t46.5 -44.5t22.5 -58t7 -65q0 -102 -66 -212l-145 -243h220v-76z" />
    <glyph glyph-name="three.tab" 
d="M43 506v34q0 80 20 116q33 59 124 59q78 0 114 -51q31 -40 31 -134q0 -76 -15.5 -110t-66.5 -44q52 -11 72 -44t20 -100v-63q0 -91 -43 -135q-43 -43 -114 -43q-42 0 -72.5 12.5t-46 29t-24.5 42.5t-10.5 43.5t-1.5 41.5v51h80v-61q0 -82 70 -82q33 0 50.5 17.5
t20.5 34.5t3 42v71q0 56 -22 78t-68 22q-19 0 -27 -1v79q20 -1 25 -1q42 0 64 21t22 81q0 71 -11.5 98.5t-52.5 27.5q-35 0 -48.5 -25.5t-13.5 -73.5v-33h-79z" />
    <glyph glyph-name="four.tab" 
d="M349 158h-62v-158h-83v158h-183v97l143 451h123v-473h62v-75zM208 627l-121 -394h117z" />
    <glyph glyph-name="five.tab" 
d="M341 291v-115q0 -84 -33 -128q-43 -57 -128 -57q-74 0 -115 45q-21 24 -29 49.5t-8 82.5v39h84v-37q0 -57 17 -78.5t54 -21.5q43 0 57.5 29.5t14.5 93.5v112q0 29 -3.5 48.5t-19 36.5t-44.5 17q-34 0 -46.5 -22t-12.5 -61h-80q9 296 11 382h273v-76h-193l-5 -176
q31 31 85 31q42 0 73 -23q29 -21 38.5 -58t9.5 -113z" />
    <glyph glyph-name="six.tab" 
d="M342 284v-90q0 -117 -34 -154q-45 -49 -121 -49q-49 0 -81 14t-47 43t-20 58.5t-5 73.5v356q0 100 39.5 139.5t110.5 39.5q149 0 149 -148v-29h-82v27q0 37 -15 54.5t-50 17.5q-23 0 -38 -8.5t-21.5 -22.5t-8.5 -24.5t-2 -20.5v-150q42 51 98 51q48 0 82 -30
q24 -21 35 -53t11 -95zM256 224v57q0 57 -15 82t-56 25q-38 0 -53 -26t-15 -81v-122q0 -91 71 -91q43 0 58 34q10 22 10 122z" />
    <glyph glyph-name="seven.tab" 
d="M341 641q-41 -77 -72 -181q-35 -117 -48 -217t-16 -243h-96q8 245 81 459q16 48 63 169h-220v78h308v-65z" />
    <glyph glyph-name="eight.tab" 
d="M343 222v-21q-1 -94 -17.5 -134t-66.5 -61q-36 -15 -76 -15q-48 0 -86 21q-34 19 -50 54t-16 101v51q0 71 16.5 108.5t65.5 49.5q-18 4 -26.5 7.5t-21.5 16.5t-19 41.5t-6 72.5v35q0 166 149 166q40 0 69 -11t44 -26.5t23.5 -39.5t10.5 -42t2 -42v-39q0 -77 -19 -103.5
t-57 -35.5q30 -6 50 -27q18 -19 24.5 -46.5t6.5 -80.5zM255 507v66q0 72 -64 72q-40 0 -55 -25t-15 -82v-38q0 -40 14.5 -63.5t55.5 -23.5q64 0 64 94zM257 168v76q0 10 -2 21t-8 27t-21 26t-37 10q-20 0 -34.5 -7.5t-21.5 -16.5t-10.5 -24.5t-4 -25t-0.5 -24.5v-70
q0 -90 69 -90q36 0 53 23t17 75z" />
    <glyph glyph-name="nine.tab" 
d="M337 545v-369q0 -96 -38 -140.5t-116 -44.5q-72 0 -113 43q-15 16 -23 36.5t-9 34t-1 38.5v43h81v-45q0 -36 15.5 -54t51.5 -18q29 0 45 18t19.5 38.5t3.5 50.5v128q-47 -44 -102 -44q-63 0 -98 48q-23 34 -23 124v95q0 39 5 67.5t19 58.5t46.5 46t81.5 16q85 0 120 -45
t35 -125zM254 421v124q0 93 -68 93q-72 0 -72 -105v-108q0 -89 71 -89q69 0 69 85z" />
    <glyph glyph-name="i.dot" horiz-adv-x="167" 
d="M123 588h-79v103h79v-103zM123 0h-79v500h79v-500z" />
    <glyph glyph-name="zero.numerator" horiz-adv-x="250" 
d="M226 582v-209q0 -21 -2.5 -36.5t-11.5 -35t-31 -30.5t-55 -11q-103 0 -103 108v221q0 22 2.5 39t12 38.5t32.5 33.5t58 12q28 0 47 -9t29 -20.5t15 -32t6 -34t1 -34.5zM163 401v179q0 41 -6.5 56.5t-31.5 15.5q-37 0 -37 -59v-207q0 -34 8 -49.5t30 -15.5q23 0 30 17
t7 63z" />
    <glyph glyph-name="one.numerator" horiz-adv-x="250" 
d="M164 265h-68v335h-70v55h19q60 0 60 46v5h59v-441z" />
    <glyph glyph-name="two.numerator" horiz-adv-x="250" 
d="M230 265h-203v60l89 151q3 6 10.5 18.5t10 16t7.5 13t6.5 13.5t4 12t3 14.5t1.5 15.5t1 19q0 51 -34 51q-31 0 -31 -47v-62h-63v60q0 112 96 112q42 0 69 -28.5t27 -90.5q0 -63 -40 -131l-83 -137h129v-60z" />
    <glyph glyph-name="three.numerator" horiz-adv-x="250" 
d="M20 407h63v-40q0 -46 34 -46q25 0 32.5 15.5t7.5 49.5v20q0 31 -8.5 46t-39.5 15l-25 -1v62q15 -1 22 -1q23 0 34.5 11t11.5 44q0 26 -1 37.5t-8.5 21.5t-22.5 10q-30 0 -30 -51v-29h-63v39q0 102 95 102q96 0 96 -109q0 -51 -7.5 -71.5t-27.5 -32.5q25 -10 33 -38t8 -92
q0 -46 -25.5 -77.5t-73.5 -31.5q-105 0 -105 100v47z" />
    <glyph glyph-name="four.numerator" horiz-adv-x="250" 
d="M233 361h-38v-96h-64v96h-111v67l88 279h87v-287h38v-59zM74 420h57l5 211z" />
    <glyph glyph-name="five.numerator" horiz-adv-x="250" 
d="M220 705v-60h-123l-4 -94q25 19 53 19q79 0 79 -96v-99q0 -115 -106 -115q-101 0 -101 110v24h62v-21q0 -53 39 -53q40 0 40 60v78q0 56 -34 56q-31 0 -34 -47h-60q5 159 8 238h181z" />
    <glyph glyph-name="six.numerator" horiz-adv-x="250" 
d="M227 601h-65v18q0 35 -34 35q-23 0 -31.5 -12.5t-8.5 -46.5v-66q24 25 60 25q41 0 63 -26t22 -75v-90q0 -103 -107 -103q-47 0 -74.5 23.5t-27.5 82.5v230q0 63 24.5 89.5t83.5 26.5q95 0 95 -83v-28zM167 374v62q0 36 -8.5 50.5t-30.5 14.5q-40 0 -40 -53v-65
q0 -40 8.5 -54t31.5 -14q39 0 39 59z" />
    <glyph glyph-name="seven.numerator" horiz-adv-x="250" 
d="M14 706h222v-40q-45 -80 -69.5 -178.5t-24.5 -191.5v-31h-75q4 114 23 190.5t69 190.5h-145v60z" />
    <glyph glyph-name="eight.numerator" horiz-adv-x="250" 
d="M226 623v-49q0 -32 -10.5 -47.5t-40.5 -26.5q29 -8 42 -25t13 -49v-64q0 -102 -105 -102q-104 0 -104 89v76q0 56 53 75q-27 11 -38 26.5t-11 44.5v53q0 88 103 88q51 0 74.5 -21.5t23.5 -67.5zM163 578v35q0 22 -8.5 31.5t-28.5 9.5q-39 0 -39 -41v-33q0 -29 8.5 -40
t30.5 -11q20 0 28.5 11t8.5 38zM164 372v39q0 28 -9 40t-31 12q-41 0 -41 -53v-36q0 -51 41 -51q22 0 31 11.5t9 37.5z" />
    <glyph glyph-name="nine.numerator" horiz-adv-x="250" 
d="M22 371h65v-18q0 -34 34 -34q23 0 31.5 12.5t8.5 45.5v66q-25 -25 -60 -25q-41 0 -63 26t-22 75v91q0 102 107 102q102 0 102 -109v-226q0 -61 -23.5 -89t-84.5 -28q-95 0 -95 84v27zM82 604v-68q0 -36 8.5 -50.5t30.5 -14.5q40 0 40 52v66q0 40 -8.5 54t-31.5 14
q-39 0 -39 -53z" />
    <glyph glyph-name="period.numerator" horiz-adv-x="117" 
d="M90 265h-63v84h63v-84z" />
    <glyph glyph-name="comma.numerator" horiz-adv-x="117" 
d="M27 349h63v-86q0 -73 -63 -86v39q24 6 24 38v11h-24v84z" />
    <glyph glyph-name="hyphen.numerator" horiz-adv-x="180" 
d="M160 421h-140v61h140v-61z" />
    <glyph glyph-name="parenleft.numerator" horiz-adv-x="189" 
d="M183 213l-32 -22q-108 135 -108 279q0 132 103 274l34 -24q-71 -102 -71 -245q0 -160 74 -262z" />
    <glyph glyph-name="parenright.numerator" horiz-adv-x="189" 
d="M6 722l32 22q108 -135 108 -279q0 -132 -103 -274l-34 24q71 102 71 245q0 160 -74 262z" />
    <glyph glyph-name="dollar.numerator" horiz-adv-x="265" 
d="M237 575h-58v24q0 27 -5 39.5t-20 16.5v-137l32 -31q32 -31 47 -57.5t15 -64.5q0 -97 -94 -105v-52h-42v52q-38 2 -64.5 29t-26.5 90v39h58v-37q0 -55 33 -65v152l-29 26q-32 28 -43.5 51t-11.5 66q0 44 23.5 70t60.5 30v52h43v-52q37 -2 59 -24q23 -23 23 -78v-34z
M112 554v101q-25 -8 -25 -44q0 -35 25 -57zM155 429v-113q32 7 32 46q0 37 -32 67z" />
    <glyph glyph-name="cent.numerator" horiz-adv-x="230" 
d="M157 379h57q0 -65 -15.5 -88.5t-59.5 -31.5v-55h-42v55q-36 5 -55.5 26.5t-19.5 71.5v115q0 56 18 80t57 29v50h42v-50q43 -5 59 -28.5t16 -88.5h-57v14q0 49 -38 49q-21 0 -29.5 -14t-8.5 -44v-104q0 -28 9 -40t30 -12q37 0 37 46v20z" />
    <glyph glyph-name="sterling.numerator" horiz-adv-x="287" 
d="M278 412v-40q0 -53 -16 -82t-65 -29q-35 0 -72 30q-29 -29 -60 -29t-46.5 15.5t-15.5 41.5q0 23 15.5 37.5t39.5 14.5q26 0 43 -12q1 6 1 20q0 21 -19 78h-61v46h46q-22 56 -22 110q0 44 26.5 71.5t81.5 27.5q65 0 88 -36q18 -26 18 -85q0 -12 -1 -22h-61v9q0 46 -11 64
t-33 18q-44 0 -44 -54q0 -46 26 -103h80v-46h-67q13 -46 13 -73q0 -31 -11 -53q21 -16 41 -16q15 0 22 12t7 48q0 19 -2 37h59zM89 322q-16 10 -25 10q-16 0 -16 -13t15 -13t26 16z" />
    <glyph glyph-name="yen.numerator" horiz-adv-x="281" 
d="M274 705l-80 -218h55v-41h-71l-5 -15v-13h76v-41h-76v-112h-63v112h-76v41h76v13l-4 15h-72v41h55l-82 218h69l67 -205l64 205h67z" />
    <glyph glyph-name="florin.numerator" horiz-adv-x="200" 
d="M195 709l-7 -57q-8 2 -17 2q-14 0 -20.5 -7t-8.5 -27l-5 -43h43l-5 -47h-43l-26 -250q-5 -52 -23.5 -77t-64.5 -25q-11 0 -26 3l5 56q8 -2 17 -2q19 0 24.5 14t8.5 47l24 234h-37l6 47h37l7 70q7 65 77 65q16 0 34 -3z" />
    <glyph glyph-name="Euro.numerator" horiz-adv-x="270" 
d="M264 685l-16 -66q-37 37 -74 37q-33 0 -46 -17.5t-13 -57.5v-37h118l-8 -41h-110v-28h104l-8 -41h-97v-25q0 -54 9 -71q13 -24 49 -24q53 0 89 38v-66q-45 -27 -107 -27q-58 0 -85 43q-17 27 -17 92v40h-32l7 41h25v28h-31l6 41h26v30q0 68 25 99q30 38 98 38
q50 0 88 -26z" />
    <glyph glyph-name="zero.denominator" horiz-adv-x="250" 
d="M226 317v-209q0 -21 -2.5 -36.5t-11.5 -35t-31 -30.5t-55 -11q-103 0 -103 108v221q0 22 2.5 39t12 38.5t32.5 33.5t58 12q28 0 47 -9t29 -20.5t15 -32t6 -34t1 -34.5zM163 136v179q0 41 -6.5 56.5t-31.5 15.5q-37 0 -37 -59v-207q0 -34 8 -49.5t30 -15.5q23 0 30 17
t7 63z" />
    <glyph glyph-name="one.denominator" horiz-adv-x="250" 
d="M164 0h-68v335h-70v55h19q60 0 60 46v5h59v-441z" />
    <glyph glyph-name="two.denominator" horiz-adv-x="250" 
d="M230 0h-203v60l89 151q3 6 10.5 18.5t10 16t7.5 13t6.5 13.5t4 12t3 14.5t1.5 15.5t1 19q0 51 -34 51q-31 0 -31 -47v-62h-63v60q0 112 96 112q42 0 69 -28.5t27 -90.5q0 -64 -40 -131l-83 -137h129v-60z" />
    <glyph glyph-name="three.denominator" horiz-adv-x="250" 
d="M20 142h63v-40q0 -46 34 -46q25 0 32.5 15.5t7.5 49.5v20q0 31 -8.5 46t-39.5 15l-25 -1v62q15 -1 22 -1q23 0 34.5 11t11.5 44q0 26 -1 37.5t-8.5 21.5t-22.5 10q-30 0 -30 -51v-29h-63v39q0 102 95 102q96 0 96 -109q0 -51 -7.5 -71.5t-27.5 -32.5q25 -10 33 -38t8 -92
q0 -46 -25.5 -77.5t-73.5 -31.5q-105 0 -105 100v47z" />
    <glyph glyph-name="four.denominator" horiz-adv-x="250" 
d="M233 96h-38v-96h-64v96h-111v67l88 279h87v-287h38v-59zM74 155h57l5 211z" />
    <glyph glyph-name="five.denominator" horiz-adv-x="250" 
d="M220 440v-60h-123l-4 -94q25 19 53 19q79 0 79 -96v-99q0 -115 -106 -115q-101 0 -101 110v24h62v-21q0 -53 39 -53q40 0 40 60v78q0 56 -34 56q-31 0 -34 -47h-60q5 159 8 238h181z" />
    <glyph glyph-name="six.denominator" horiz-adv-x="250" 
d="M227 336h-65v18q0 35 -34 35q-23 0 -31.5 -12.5t-8.5 -46.5v-66q24 25 60 25q41 0 63 -26t22 -75v-90q0 -103 -107 -103q-47 0 -74.5 23.5t-27.5 82.5v230q0 63 24.5 89.5t83.5 26.5q95 0 95 -83v-28zM167 109v62q0 36 -8.5 50.5t-30.5 14.5q-40 0 -40 -53v-65
q0 -40 8.5 -54t31.5 -14q39 0 39 59z" />
    <glyph glyph-name="seven.denominator" horiz-adv-x="250" 
d="M14 441h222v-40q-45 -80 -69.5 -178.5t-24.5 -191.5v-31h-75q4 114 23 190.5t69 190.5h-145v60z" />
    <glyph glyph-name="eight.denominator" horiz-adv-x="250" 
d="M226 358v-49q0 -32 -10.5 -47.5t-40.5 -26.5q29 -8 42 -25t13 -49v-64q0 -102 -105 -102q-104 0 -104 89v76q0 56 53 75q-27 11 -38 26.5t-11 44.5v53q0 88 103 88q51 0 74.5 -21.5t23.5 -67.5zM163 313v35q0 22 -8.5 31.5t-28.5 9.5q-39 0 -39 -41v-33q0 -29 8.5 -40
t30.5 -11q20 0 28.5 11t8.5 38zM164 107v39q0 28 -9 40t-31 12q-41 0 -41 -53v-36q0 -51 41 -51q22 0 31 11.5t9 37.5z" />
    <glyph glyph-name="nine.denominator" horiz-adv-x="250" 
d="M22 106h65v-18q0 -34 34 -34q23 0 31.5 12.5t8.5 45.5v66q-25 -25 -60 -25q-41 0 -63 26t-22 75v91q0 102 107 102q102 0 102 -109v-226q0 -61 -23.5 -89t-84.5 -28q-95 0 -95 84v27zM82 339v-68q0 -36 8.5 -50.5t30.5 -14.5q40 0 40 52v66q0 40 -8.5 54t-31.5 14
q-39 0 -39 -53z" />
    <glyph glyph-name="period.denominator" horiz-adv-x="117" 
d="M90 0h-63v84h63v-84z" />
    <glyph glyph-name="comma.denominator" horiz-adv-x="117" 
d="M27 84h63v-86q0 -73 -63 -86v39q24 6 24 38v11h-24v84z" />
    <glyph glyph-name="hyphen.denominator" horiz-adv-x="180" 
d="M160 156h-140v61h140v-61z" />
    <glyph glyph-name="parenleft.denominator" horiz-adv-x="189" 
d="M183 -52l-32 -22q-108 135 -108 279q0 132 103 274l34 -24q-71 -102 -71 -245q0 -160 74 -262z" />
    <glyph glyph-name="parenright.denominator" horiz-adv-x="189" 
d="M6 457l32 22q108 -135 108 -279q0 -132 -103 -274l-34 24q71 102 71 245q0 160 -74 262z" />
    <glyph glyph-name="dollar.denominator" horiz-adv-x="265" 
d="M237 310h-58v24q0 27 -5 39.5t-20 16.5v-137l32 -31q32 -31 47 -57.5t15 -64.5q0 -97 -94 -105v-52h-42v52q-38 2 -64.5 29t-26.5 90v39h58v-37q0 -55 33 -65v152l-29 26q-32 28 -43.5 51.5t-11.5 65.5q0 44 23.5 70t60.5 30v52h43v-52q37 -2 59 -24q23 -23 23 -78v-34z
M112 289v101q-25 -8 -25 -44q0 -35 25 -57zM155 164v-113q32 7 32 46q0 37 -32 67z" />
    <glyph glyph-name="cent.denominator" horiz-adv-x="230" 
d="M157 114h57q0 -65 -15.5 -88.5t-59.5 -31.5v-55h-42v55q-36 5 -55.5 26.5t-19.5 71.5v115q0 56 18 80t57 29v50h42v-50q43 -5 59 -28.5t16 -88.5h-57v14q0 49 -38 49q-21 0 -29.5 -14t-8.5 -44v-104q0 -28 9 -40t30 -12q37 0 37 46v20z" />
    <glyph glyph-name="sterling.denominator" horiz-adv-x="287" 
d="M278 146v-40q0 -53 -16 -82t-65 -29q-35 0 -72 30q-29 -29 -60 -29t-46.5 15.5t-15.5 41.5q0 23 15.5 37.5t39.5 14.5q26 0 43 -12q1 6 1 20q0 21 -19 78h-61v46h46q-22 56 -22 110q0 44 26.5 71.5t81.5 27.5q65 0 88 -36q18 -26 18 -85q0 -12 -1 -22h-61v9q0 46 -11 64
t-33 18q-44 0 -44 -54q0 -46 26 -103h80v-46h-67q13 -46 13 -73q0 -31 -11 -53q21 -16 41 -16q15 0 22 12t7 48q0 19 -2 37h59zM89 56q-16 10 -25 10q-16 0 -16 -13t15 -13t26 16z" />
    <glyph glyph-name="yen.denominator" horiz-adv-x="281" 
d="M274 440l-80 -218h55v-41h-71l-5 -15v-13h76v-41h-76v-112h-63v112h-76v41h76v13l-4 15h-72v41h55l-82 218h69l67 -205l64 205h67z" />
    <glyph glyph-name="florin.denominator" horiz-adv-x="200" 
d="M195 444l-7 -57q-8 2 -17 2q-14 0 -20.5 -7t-8.5 -27l-5 -43h43l-5 -47h-43l-26 -250q-5 -52 -23.5 -77t-64.5 -25q-11 0 -26 3l5 56q8 -2 17 -2q19 0 24.5 14t8.5 47l24 234h-37l6 47h37l7 70q7 65 77 65q16 0 34 -3z" />
    <glyph glyph-name="Euro.denominator" horiz-adv-x="270" 
d="M264 420l-16 -66q-37 37 -74 37q-33 0 -46 -17.5t-13 -57.5v-37h118l-8 -41h-110v-28h104l-8 -41h-97v-25q0 -54 9 -71q13 -24 49 -24q53 0 89 38v-66q-45 -27 -107 -27q-58 0 -85 43q-17 27 -17 92v40h-32l7 41h25v28h-31l6 41h26v30q0 68 25 99q30 38 98 38
q50 0 88 -26z" />
    <glyph glyph-name="one.superior" horiz-adv-x="250" 
d="M164 415h-68v335h-70v55h19q60 0 60 46v5h59v-441z" />
    <glyph glyph-name="two.superior" horiz-adv-x="250" 
d="M230 415h-203v60l89 151q3 6 10.5 18.5t10 16t7.5 13t6.5 13.5t4 12t3 14.5t1.5 15.5t1 19q0 51 -34 51q-31 0 -31 -47v-62h-63v60q0 112 96 112q42 0 69 -28.5t27 -90.5q0 -63 -40 -131l-83 -137h129v-60z" />
    <glyph glyph-name="three.superior" horiz-adv-x="250" 
d="M20 557h63v-40q0 -46 34 -46q25 0 32.5 15.5t7.5 49.5v20q0 31 -8.5 46t-39.5 15l-25 -1v62q15 -1 22 -1q23 0 34.5 11t11.5 44q0 26 -1 37.5t-8.5 21.5t-22.5 10q-30 0 -30 -51v-29h-63v39q0 102 95 102q96 0 96 -109q0 -51 -7.5 -71.5t-27.5 -32.5q25 -10 33 -38t8 -92
q0 -46 -25.5 -77.5t-73.5 -31.5q-105 0 -105 100v47z" />
    <glyph glyph-name="period.superior" horiz-adv-x="117" 
d="M90 415h-63v84h63v-84z" />
    <glyph glyph-name="comma.superior" horiz-adv-x="117" 
d="M27 499h63v-86q0 -73 -63 -86v39q24 6 24 38v11h-24v84z" />
    <glyph glyph-name="hyphen.superior" horiz-adv-x="180" 
d="M160 571h-140v61h140v-61z" />
    <glyph glyph-name="dollar.superior" horiz-adv-x="265" 
d="M237 725h-58v24q0 27 -5 39.5t-20 16.5v-137l32 -31q32 -31 47 -57.5t15 -64.5q0 -97 -94 -105v-52h-42v52q-38 2 -64.5 29t-26.5 90v39h58v-37q0 -55 33 -65v152l-29 26q-32 28 -43.5 51t-11.5 66q0 44 23.5 70t60.5 30v52h43v-52q37 -2 59 -24q23 -23 23 -78v-34z
M112 704v101q-25 -8 -25 -44q0 -35 25 -57zM155 579v-113q32 7 32 46q0 37 -32 67z" />
    <glyph glyph-name="cent.superior" horiz-adv-x="230" 
d="M157 529h57q0 -65 -15.5 -88.5t-59.5 -31.5v-55h-42v55q-36 5 -55.5 26.5t-19.5 71.5v115q0 56 18 80t57 29v50h42v-50q43 -5 59 -28.5t16 -88.5h-57v14q0 49 -38 49q-21 0 -29.5 -14t-8.5 -44v-104q0 -28 9 -40t30 -12q37 0 37 46v20z" />
    <glyph glyph-name="sterling.superior" horiz-adv-x="287" 
d="M278 562v-40q0 -53 -16 -82t-65 -29q-35 0 -72 30q-29 -29 -60 -29t-46.5 15.5t-15.5 41.5q0 23 15.5 37.5t39.5 14.5q26 0 43 -12q1 6 1 20q0 21 -19 78h-61v46h46q-22 56 -22 110q0 44 26.5 71.5t81.5 27.5q65 0 88 -36q18 -26 18 -85q0 -12 -1 -22h-61v9q0 46 -11 64
t-33 18q-44 0 -44 -54q0 -46 26 -103h80v-46h-67q13 -46 13 -73q0 -31 -11 -53q21 -16 41 -16q15 0 22 12t7 48q0 19 -2 37h59zM89 472q-16 10 -25 10q-16 0 -16 -13t15 -13t26 16z" />
    <glyph glyph-name="yen.superior" horiz-adv-x="281" 
d="M274 855l-80 -218h55v-41h-71l-5 -15v-13h76v-41h-76v-112h-63v112h-76v41h76v13l-4 15h-72v41h55l-82 218h69l67 -205l64 205h67z" />
    <glyph glyph-name="florin.superior" horiz-adv-x="200" 
d="M195 859l-7 -57q-8 2 -17 2q-14 0 -20.5 -7t-8.5 -27l-5 -43h43l-5 -47h-43l-26 -250q-5 -52 -23.5 -77t-64.5 -25q-11 0 -26 3l5 56q8 -2 17 -2q19 0 24.5 14t8.5 47l24 234h-37l6 47h37l7 70q7 65 77 65q16 0 34 -3z" />
    <glyph glyph-name="Euro.superior" horiz-adv-x="270" 
d="M264 835l-16 -66q-37 37 -74 37q-33 0 -46 -17.5t-13 -57.5v-37h118l-8 -41h-110v-28h104l-8 -41h-97v-25q0 -54 9 -71q13 -24 49 -24q53 0 89 38v-66q-45 -27 -107 -27q-58 0 -85 43q-17 27 -17 92v40h-32l7 41h25v28h-31l6 41h26v30q0 68 25 99q30 38 98 38
q50 0 88 -26z" />
    <glyph glyph-name="period.inferior" horiz-adv-x="117" 
d="M90 -150h-63v84h63v-84z" />
    <glyph glyph-name="comma.inferior" horiz-adv-x="117" 
d="M27 -66h63v-86q0 -73 -63 -86v39q24 6 24 38v11h-24v84z" />
    <glyph glyph-name="hyphen.inferior" horiz-adv-x="180" 
d="M160 6h-140v61h140v-61z" />
    <glyph glyph-name="dollar.inferior" horiz-adv-x="265" 
d="M237 160h-58v24q0 27 -5 39.5t-20 16.5v-137l32 -31q32 -31 47 -57.5t15 -64.5q0 -97 -94 -105v-52h-42v52q-38 2 -64.5 29t-26.5 90v39h58v-37q0 -55 33 -65v152l-29 26q-32 28 -43.5 51.5t-11.5 65.5q0 44 23.5 70t60.5 30v52h43v-52q37 -2 59 -24q23 -23 23 -78v-34z
M112 139v101q-25 -8 -25 -44q0 -35 25 -57zM155 14v-113q32 7 32 46q0 37 -32 67z" />
    <glyph glyph-name="cent.inferior" horiz-adv-x="230" 
d="M157 -36h57q0 -65 -15.5 -88.5t-59.5 -31.5v-55h-42v55q-36 5 -55.5 26.5t-19.5 71.5v115q0 56 18 80t57 29v50h42v-50q43 -5 59 -28.5t16 -88.5h-57v14q0 49 -38 49q-21 0 -29.5 -14t-8.5 -44v-104q0 -28 9 -40t30 -12q37 0 37 46v20z" />
    <glyph glyph-name="sterling.inferior" horiz-adv-x="287" 
d="M278 -4v-40q0 -53 -16 -82t-65 -29q-35 0 -72 30q-29 -29 -60 -29t-46.5 15.5t-15.5 41.5q0 23 15.5 37.5t39.5 14.5q26 0 43 -12q1 6 1 20q0 21 -19 78h-61v46h46q-22 56 -22 110q0 44 26.5 71.5t81.5 27.5q65 0 88 -36q18 -26 18 -85q0 -12 -1 -22h-61v9q0 46 -11 64
t-33 18q-44 0 -44 -54q0 -46 26 -103h80v-46h-67q13 -46 13 -73q0 -31 -11 -53q21 -16 41 -16q15 0 22 12t7 48q0 19 -2 37h59zM89 -94q-16 10 -25 10q-16 0 -16 -13t15 -13t26 16z" />
    <glyph glyph-name="yen.inferior" horiz-adv-x="281" 
d="M274 290l-80 -218h55v-41h-71l-5 -15v-13h76v-41h-76v-112h-63v112h-76v41h76v13l-4 15h-72v41h55l-82 218h69l67 -205l64 205h67z" />
    <glyph glyph-name="florin.inferior" horiz-adv-x="200" 
d="M195 294l-7 -57q-8 2 -17 2q-14 0 -20.5 -7t-8.5 -27l-5 -43h43l-5 -47h-43l-26 -250q-5 -52 -23.5 -77t-64.5 -25q-11 0 -26 3l5 56q8 -2 17 -2q19 0 24.5 14t8.5 47l24 234h-37l6 47h37l7 70q7 65 77 65q16 0 34 -3z" />
    <glyph glyph-name="Euro.inferior" horiz-adv-x="270" 
d="M264 270l-16 -66q-37 37 -74 37q-33 0 -46 -17.5t-13 -57.5v-37h118l-8 -41h-110v-28h104l-8 -41h-97v-25q0 -54 9 -71q13 -24 49 -24q53 0 89 38v-66q-45 -27 -107 -27q-58 0 -85 43q-17 27 -17 92v40h-32l7 41h25v28h-31l6 41h26v30q0 68 25 99q30 38 98 38
q50 0 88 -26z" />
    <glyph glyph-name="zero.fitted" horiz-adv-x="373" 
d="M345 522v-309q0 -119 -26 -160q-39 -62 -130 -62q-82 0 -124 45q-38 41 -38 171v300q0 73 11.5 109.5t35.5 59.5q40 39 112 39q71 0 110 -38q25 -24 37 -57.5t12 -97.5zM257 350v171q0 63 -14.5 89t-55.5 26q-25 0 -41 -10t-22.5 -29.5t-8 -34.5t-1.5 -39v-332
q0 -66 13 -94t58 -28q46 0 59 26t13 79v176z" />
    <glyph glyph-name="one.fitted" horiz-adv-x="317" 
d="M220 0h-88v554h-117v67q68 0 99 17t32 68h74v-706z" />
    <glyph glyph-name="two.fitted" horiz-adv-x="362" 
d="M333 0h-309v85l146 247q46 78 58.5 114t12.5 96q0 47 -15 70t-51 23q-62 0 -62 -93v-88h-81v98q0 163 142 163q43 0 74 -16.5t46.5 -44.5t22.5 -58t7 -65q0 -102 -66 -212l-145 -243h220v-76z" />
    <glyph glyph-name="three.fitted" horiz-adv-x="365" 
d="M32 506v34q0 80 20 116q33 59 124 59q78 0 114 -51q31 -40 31 -134q0 -76 -15.5 -110t-66.5 -44q52 -11 72 -44t20 -100v-63q0 -91 -43 -135q-43 -43 -114 -43q-42 0 -72.5 12.5t-46 29t-24.5 42.5t-10.5 43.5t-1.5 41.5v51h80v-61q0 -82 70 -82q33 0 50.5 17.5
t20.5 34.5t3 42v71q0 56 -22 78t-68 22q-19 0 -27 -1v79q20 -1 25 -1q42 0 64 21t22 81q0 71 -11.5 98.5t-52.5 27.5q-35 0 -48.5 -25.5t-13.5 -73.5v-33h-79z" />
    <glyph glyph-name="four.fitted" horiz-adv-x="369" 
d="M348 158h-62v-158h-83v158h-183v97l143 451h123v-473h62v-75zM207 627l-121 -394h117z" />
    <glyph glyph-name="five.fitted" horiz-adv-x="367" 
d="M337 291v-115q0 -84 -33 -128q-43 -57 -128 -57q-74 0 -115 45q-21 24 -29 49.5t-8 82.5v39h84v-37q0 -57 17 -78.5t54 -21.5q43 0 57.5 29.5t14.5 93.5v112q0 29 -3.5 48.5t-19 36.5t-44.5 17q-34 0 -46.5 -22t-12.5 -61h-80q9 296 11 382h273v-76h-193l-5 -176
q31 31 85 31q42 0 73 -23q29 -21 38.5 -58t9.5 -113z" />
    <glyph glyph-name="six.fitted" horiz-adv-x="373" 
d="M346 284v-90q0 -117 -34 -154q-45 -49 -121 -49q-49 0 -81 14t-47 43t-20 58.5t-5 73.5v356q0 100 39.5 139.5t110.5 39.5q149 0 149 -148v-29h-82v27q0 37 -15 54.5t-50 17.5q-23 0 -38 -8.5t-21.5 -22.5t-8.5 -24.5t-2 -20.5v-150q42 51 98 51q48 0 82 -30
q24 -21 35 -53t11 -95zM260 224v57q0 57 -15 82t-56 25q-38 0 -53 -26t-15 -81v-122q0 -91 71 -91q43 0 58 34q10 22 10 122z" />
    <glyph glyph-name="seven.fitted" horiz-adv-x="329" 
d="M308 641q-41 -77 -72 -181q-35 -117 -48 -217t-16 -243h-96q8 245 81 459q16 48 63 169h-220v78h308v-65z" />
    <glyph glyph-name="eight.fitted" horiz-adv-x="366" 
d="M339 222v-21q-1 -94 -17.5 -134t-66.5 -61q-36 -15 -76 -15q-48 0 -86 21q-34 19 -50 54t-16 101v51q0 71 16.5 108.5t65.5 49.5q-18 4 -26.5 7.5t-21.5 16.5t-19 41.5t-6 72.5v35q0 166 149 166q40 0 69 -11t44 -26.5t23.5 -39.5t10.5 -42t2 -42v-39q0 -77 -19 -103.5
t-57 -35.5q30 -6 50 -27q18 -19 24.5 -46.5t6.5 -80.5zM251 507v66q0 72 -64 72q-40 0 -55 -25t-15 -82v-38q0 -40 14.5 -63.5t55.5 -23.5q64 0 64 94zM253 168v76q0 10 -2 21t-8 27t-21 26t-37 10q-20 0 -34.5 -7.5t-21.5 -16.5t-10.5 -24.5t-4 -25t-0.5 -24.5v-70
q0 -90 69 -90q36 0 53 23t17 75z" />
    <glyph glyph-name="nine.fitted" horiz-adv-x="373" 
d="M334 540v-369q0 -96 -38 -140.5t-116 -44.5q-72 0 -113 43q-15 16 -23 36.5t-9 34t-1 38.5v43h81v-45q0 -36 15.5 -54t51.5 -18q29 0 45 18t19.5 38.5t3.5 50.5v128q-47 -44 -102 -44q-63 0 -98 48q-23 34 -23 124v95q0 39 5 67.5t19 58.5t46.5 46t81.5 16q85 0 120 -45
t35 -125zM251 416v124q0 93 -68 93q-72 0 -72 -105v-108q0 -89 71 -89q69 0 69 85z" />
    <glyph glyph-name="onefifth" horiz-adv-x="625" 
d="M486 706l-344 -706h-49l348 706h45zM173 265h-68v335h-70v55h19q60 0 60 46v5h59v-441zM583 440v-60h-123l-4 -94q25 19 53 19q79 0 79 -96v-99q0 -115 -106 -115q-101 0 -101 110v24h62v-21q0 -53 39 -53q40 0 40 60v78q0 56 -34 56q-31 0 -34 -47h-60q5 159 8 238h181z
" />
    <glyph glyph-name="twofifths" horiz-adv-x="625" 
d="M516 706l-344 -706h-49l348 706h45zM601 440v-60h-123l-4 -94q25 19 53 19q79 0 79 -96v-99q0 -115 -106 -115q-101 0 -101 110v24h62v-21q0 -53 39 -53q40 0 40 60v78q0 56 -34 56q-31 0 -34 -47h-60q5 159 8 238h181zM230 265h-203v60l89 151q3 6 10.5 18.5t10 16
t7.5 13t6.5 13.5t4 12t3 14.5t1.5 15.5t1 19q0 51 -34 51q-31 0 -31 -47v-62h-63v60q0 112 96 112q42 0 69 -28.5t27 -90.5q0 -63 -40 -131l-83 -137h129v-60z" />
    <glyph glyph-name="threefifths" horiz-adv-x="625" 
d="M506 706l-344 -706h-49l348 706h45zM593 440v-60h-123l-4 -94q25 19 53 19q79 0 79 -96v-99q0 -115 -106 -115q-101 0 -101 110v24h62v-21q0 -53 39 -53q40 0 40 60v78q0 56 -34 56q-31 0 -34 -47h-60q5 159 8 238h181zM28 407h63v-40q0 -46 34 -46q25 0 32.5 15.5
t7.5 49.5v20q0 31 -8.5 46t-39.5 15l-25 -1v62q15 -1 22 -1q23 0 34.5 11t11.5 44q0 26 -1 37.5t-8.5 21.5t-22.5 10q-30 0 -30 -51v-29h-63v39q0 102 95 102q96 0 96 -109q0 -51 -7.5 -71.5t-27.5 -32.5q25 -10 33 -38t8 -92q0 -46 -25.5 -77.5t-73.5 -31.5
q-105 0 -105 100v47z" />
    <glyph glyph-name="fourfifths" horiz-adv-x="625" 
d="M510 706l-344 -706h-49l348 706h45zM599 440v-60h-123l-4 -94q25 19 53 19q79 0 79 -96v-99q0 -115 -106 -115q-101 0 -101 110v24h62v-21q0 -53 39 -53q40 0 40 60v78q0 56 -34 56q-31 0 -34 -47h-60q5 159 8 238h181zM238 361h-38v-96h-64v96h-111v67l88 279h87v-287
h38v-59zM79 420h57l5 211z" />
    <glyph glyph-name="braceleft.cap" horiz-adv-x="354" 
d="M327 786v-67q-67 -4 -84 -33t-17 -101v-74q0 -32 -2.5 -54.5t-10.5 -48t-26 -42.5t-47 -23v-4q28 -5 46.5 -21t26.5 -40.5t10.5 -46.5t2.5 -53v-93q0 -62 18.5 -90t82.5 -31v-67h-5q-51 0 -75 6q-67 16 -88 61t-21 124v83q0 31 -2 49t-9 40t-25 33t-47 14v69q29 0 46 12
q17 11 26 33t10 38.5t1 44.5v97q0 47 6 77.5t29 59t66 40.5q28 8 88 8z" />
    <glyph glyph-name="braceright.cap" horiz-adv-x="354" 
d="M28 -102v67q29 1 48.5 9t30 17.5t15.5 29.5t6 35t1 43v74q0 32 2.5 54.5t10.5 48t26 42.5t47 23v4q-28 5 -46.5 21t-26.5 40.5t-10.5 46.5t-2.5 53v93q0 62 -19.5 91t-81.5 30v67h5q51 0 75 -6q67 -16 88 -61t21 -124v-83q0 -31 2 -49t9 -40t25 -33t47 -14v-69
q-29 0 -46 -12q-17 -11 -26 -33t-10 -38.5t-1 -44.5v-97q0 -47 -6 -77.5t-29 -59t-66 -40.5q-28 -8 -88 -8z" />
    <glyph glyph-name="bracketleft.cap" horiz-adv-x="313" 
d="M293 -103h-196v889h196v-63h-112v-762h112v-64z" />
    <glyph glyph-name="bracketright.cap" horiz-adv-x="313" 
d="M216 -103h-197v64h113v762h-113v63h197v-889z" />
    <glyph glyph-name="emdash.cap" horiz-adv-x="567" 
d="M542 308h-517v78h517v-78z" />
    <glyph glyph-name="endash.cap" horiz-adv-x="371" 
d="M346 308h-321v78h321v-78z" />
    <glyph glyph-name="guillemotleft.cap" horiz-adv-x="354" 
d="M324 140l-139 158v86l139 156v-116l-74 -83l74 -84v-117zM162 140l-140 158v86l140 156v-116l-74 -83l74 -84v-117z" />
    <glyph glyph-name="guillemotright.cap" horiz-adv-x="354" 
d="M332 298l-140 -158v117l74 84l-74 83v116l140 -156v-86zM170 298l-140 -158v117l74 84l-74 83v116l140 -156v-86z" />
    <glyph glyph-name="guilsinglleft.cap" horiz-adv-x="187" 
d="M160 140l-140 158v86l140 156v-116l-74 -83l74 -84v-117z" />
    <glyph glyph-name="guilsinglright.cap" horiz-adv-x="187" 
d="M167 298l-139 -158v117l74 84l-74 83v116l139 -156v-86z" />
    <glyph glyph-name="hyphen.cap" horiz-adv-x="266" 
d="M241 308h-216v78h216v-78z" />
    <glyph glyph-name="parenleft.cap" horiz-adv-x="292" 
d="M283 -67l-40 -36q-35 36 -78 114q-96 174 -96 335q0 212 166 440l43 -38q-120 -169 -120 -393q0 -263 125 -422z" />
    <glyph glyph-name="parenright.cap" horiz-adv-x="292" 
d="M13 748l43 38q167 -219 167 -440q0 -159 -97 -335q-43 -77 -77 -114l-41 36q125 170 125 424q0 224 -120 391z" />
    <glyph glyph-name="periodcentered.cap" horiz-adv-x="167" 
d="M126 279h-85v118h85v-118z" />
    <glyph glyph-name="afii10066.locl" horiz-adv-x="354" 
d="M235 706h83q0 -19 -1.5 -31t-8.5 -32t-26 -31t-49 -11h-63q-23 0 -32.5 -6t-9.5 -22q0 -20 19.5 -34t47.5 -25.5t56 -27.5t47.5 -48t19.5 -78v-168q0 -32 -1 -49t-4.5 -45t-12.5 -43.5t-24 -32t-40.5 -24t-60.5 -7.5q-139 0 -139 158v172q0 141 80 165q-1 1 -10 7t-14 10
t-14 13t-14 17.5t-9 22t-4 28.5q0 98 108 98h52q24 0 24 24zM235 211v129q0 25 -2 41t-15.5 32.5t-38.5 16.5q-36 0 -47.5 -26.5t-11.5 -86.5v-127q0 -80 9 -108.5t46 -28.5q14 0 24.5 4.5t17 15.5t10.5 22t5.5 32.5t2 37.5t0.5 46z" />
    <glyph glyph-name="Imacron" horiz-adv-x="187" 
d="M137 0h-87v706h87v-706zM193 773h-199v64h199v-64z" />
    <glyph glyph-name="ibreve" horiz-adv-x="167" 
d="M123 0h-79v500h79v-500zM136 671h48q0 -56 -29 -85.5t-70 -29.5q-43 0 -72.5 27t-29.5 88h48q0 -10 2 -20.5t14.5 -24t35.5 -13.5q22 0 35 13t15.5 24t2.5 21z" />
    <glyph glyph-name="cyrbreve" horiz-adv-x="374" 
d="M187 570q-113 0 -113 102h68q0 -46 45 -46t45 46h68q0 -102 -113 -102z" />
    <glyph glyph-name="quoteleft.001" horiz-adv-x="167" 
d="M126 452h-85v121q0 56 18 89.5t67 43.5v-51q-38 -10 -38 -59v-26h38v-118z" />
    <glyph glyph-name="beta.salt" 
d="M339 239v-36q0 -37 -1.5 -61t-8 -56t-18.5 -50t-35 -31.5t-56 -13.5q-62 0 -94 51v-42h-82v559q0 24 1.5 41t9.5 39.5t21.5 36t40 23.5t63.5 10q38 0 66 -11t41.5 -25.5t21 -37t9 -37t1.5 -33.5v-44q0 -31 -7 -52.5t-21.5 -32.5t-24.5 -15t-28 -9q62 -15 81 -49t20 -124z
M255 161v46q0 105 -12 135.5t-58 30.5q-9 0 -16 -1v72h11q35 0 47 14t12 62v43q0 17 -1.5 28.5t-7 24.5t-18 19.5t-31.5 6.5q-36 0 -45 -20t-9 -61v-407q0 -44 16 -73.5t51 -29.5q21 0 34.5 10.5t18.5 30.5t6.5 34t1.5 35z" />
    <glyph glyph-name="gamma.salt" horiz-adv-x="332" 
d="M121 -159v168l-111 491h87l66 -386l73 386h86l-119 -496v-163h-82z" />
    <glyph glyph-name="lambda.salt" horiz-adv-x="341" 
d="M188 617l141 -617h-85l-69 334l-84 -334h-86l139 489l-18 87q-13 64 -56 64q-11 0 -32 -6v69q17 6 42 6q88 0 108 -92z" />
    <glyph glyph-name="etatonos.salt" 
d="M331 0h-81v366q0 80 -59 80q-67 0 -67 -97v-349h-80v500h76v-46q40 55 108 55q60 0 86 -43q11 -18 14 -41t3 -73v-352zM304 671l-98 -108h-64l53 108h109z" />
    <glyph glyph-name="eta.salt" 
d="M331 0h-81v366q0 80 -59 80q-67 0 -67 -97v-349h-80v500h76v-46q40 55 108 55q60 0 86 -43q11 -18 14 -41t3 -73v-352z" />
    <glyph glyph-name="iota.salt" horiz-adv-x="167" 
d="M123 0h-79v500h79v-500z" />
    <glyph glyph-name="chi.salt" horiz-adv-x="333" 
d="M333 0h-91l-79 198l-75 -198h-88l120 268l-104 232h93l54 -164l60 164h90l-105 -232z" />
    <glyph glyph-name="zeta.salt" horiz-adv-x="292" 
d="M281 0h-272v66l188 366h-163v68h247v-68l-187 -366h187v-66z" />
    <glyph glyph-name="iotadieresis.salt" horiz-adv-x="167" 
d="M199 563h-78v103h78v-103zM44 563h-78v103h78v-103zM123 0h-79v500h79v-500z" />
    <glyph glyph-name="sigma1.salt" horiz-adv-x="313" 
d="M94 173v-40q0 -77 62 -77q26 0 42 17t16 43q0 21 -8 37.5t-16 25t-28 25.5l-62 54q-37 33 -53 58t-16 65q0 58 31 93t97 35q124 0 124 -128v-28h-71v16q0 76 -53 76q-20 0 -36.5 -11.5t-16.5 -43.5q0 -8 2 -15.5t6.5 -15l7.5 -12.5t11 -12.5t11 -10.5t12.5 -10.5
t11.5 -9.5l57 -47q36 -30 53 -59t17 -67q0 -68 -38.5 -104t-105.5 -36q-77 0 -109 46q-15 22 -19.5 49.5t-5.5 86.5h77z" />
    <glyph glyph-name="tau.salt" horiz-adv-x="258" 
d="M5 432v68h248v-68h-83v-315q0 -27 9 -42.5t37 -15.5q14 0 28 4v-65q-21 -7 -45 -7q-70 0 -90.5 29t-20.5 96v316h-83z" />
    <glyph glyph-name="pi.salt" horiz-adv-x="402" 
d="M15 432v67h372v-67h-44v-432h-81v432h-123v-432h-80v432h-44z" />
    <glyph glyph-name="nu.salt" horiz-adv-x="326" 
d="M319 500l-114 -500h-91l-107 500h87l66 -410l73 410h86z" />
    <glyph glyph-name="mu.salt" 
d="M254 0v45q-26 -54 -75 -54q-34 0 -55 26v-176h-80v659h80v-346q0 -52 8 -72q13 -31 53 -31q35 0 51 27t16 87v335h79v-500h-77z" />
    <glyph glyph-name="iotatonos.salt" horiz-adv-x="167" 
d="M123 0h-79v500h79v-500zM210 671l-98 -108h-64l53 108h109z" />
    <glyph glyph-name="kappa.salt" horiz-adv-x="354" 
d="M363 500l-135 -194l128 -306h-85l-97 232l-51 -70v-162h-79v500h79v-227l148 227h92z" />
    <glyph glyph-name="iotadieresistonos.salt" horiz-adv-x="167" 
d="M123 0h-79v500h79v-500zM244 563h-78v103h78v-103zM29 563h-78v103h78v-103zM169 702l-72 -139h-54l32 139h94z" />
    <glyph glyph-name="phi.salt" horiz-adv-x="510" 
d="M117 329v-138q0 -73 21.5 -106t75.5 -35v314q0 63 30.5 104t95.5 41q134 0 134 -152v-167q0 -101 -43 -148.5t-136 -49.5v-151h-81v151q-93 2 -135.5 50t-42.5 149v125q0 104 39 148.5t112 44.5v-66q-70 0 -70 -114zM295 357v-307q98 4 98 143v174q0 76 -50 76
q-30 0 -39 -21t-9 -65z" />
    <glyph glyph-name="xi.salt" horiz-adv-x="316" 
d="M131 595v-92q0 -62 117 -62h21v-68q-7 1 -29 1q-64 -2 -93.5 -20.5t-29.5 -64.5v-162q0 -61 78 -61q71 0 91 -25t20 -79v-84h-77v83q0 23 -11 31t-40 8q-60 0 -101 29t-41 92v184q0 90 87 107q-74 23 -74 85v95q0 44 35.5 81t107.5 37q33 0 58.5 -9.5t39.5 -23.5
t22.5 -32.5t11 -33.5t2.5 -30v-39h-76v39q0 30 -17 46.5t-41 16.5q-30 0 -45.5 -16t-15.5 -33z" />
    <glyph glyph-name="alpha.salt" horiz-adv-x="379" 
d="M119 347v-182q0 -21 1.5 -36t6.5 -34.5t18.5 -30t34.5 -10.5q25 0 40.5 11t22 32.5t8 38t1.5 42.5v143q0 21 -0.5 32.5t-4.5 31.5t-11 31t-21.5 20t-35.5 9q-60 0 -60 -98zM331 500v-394q0 -52 4 -73.5t20 -32.5h-98v60q-9 -18 -16 -29.5t-30.5 -25.5t-55.5 -14
t-54.5 12.5t-35 30t-19.5 46t-8.5 52.5t-1.5 57v154q0 77 31 121.5t88 44.5q61 0 99 -62v53h77z" />
    <glyph glyph-name="alphatonos.salt" horiz-adv-x="379" 
d="M119 347v-182q0 -21 1.5 -36t6.5 -34.5t18.5 -30t34.5 -10.5q25 0 40.5 11t22 32.5t8 38t1.5 42.5v143q0 21 -0.5 32.5t-4.5 31.5t-11 31t-21.5 20t-35.5 9q-60 0 -60 -98zM331 500v-394q0 -52 4 -73.5t20 -32.5h-98v60q-9 -18 -16 -29.5t-30.5 -25.5t-55.5 -14
t-54.5 12.5t-35 30t-19.5 46t-8.5 52.5t-1.5 57v154q0 77 31 121.5t88 44.5q61 0 99 -62v53h77zM323 671l-98 -108h-64l53 108h109z" />
    <glyph glyph-name="cyrBreve" horiz-adv-x="374" 
d="M187 743q-62 0 -92.5 29.5t-30.5 76.5h71q0 -47 52 -47t52 47h71q0 -47 -30.5 -76.5t-92.5 -29.5z" />
    <glyph glyph-name="psi.salt" horiz-adv-x="499" 
d="M289 500v-449q95 0 95 141v308h81v-310q0 -102 -42 -151t-134 -49v-149h-81v149q-92 0 -133 47t-41 149v314h81v-278q0 -102 19 -136.5t74 -34.5v449h81z" />
    </font>
</defs>
</svg>
